<?xml version="1.0" standalone="no"?>
<!DOCTYPE svg PUBLIC "-//W3C//DTD SVG 1.1//EN" "http://www.w3.org/Graphics/SVG/1.1/DTD/svg11.dtd" >
<svg xmlns="http://www.w3.org/2000/svg" xmlns:xlink="http://www.w3.org/1999/xlink" version="1.1">
<metadata></metadata>
<defs>
<font id="hindbold" horiz-adv-x="281" >
<font-face units-per-em="1000" ascent="800" descent="-200" />
<missing-glyph horiz-adv-x="250" />
<glyph horiz-adv-x="0" />
<glyph horiz-adv-x="0" />
<glyph unicode="&#xd;" horiz-adv-x="333" />
<glyph unicode=" "  horiz-adv-x="250" />
<glyph unicode="&#x09;" horiz-adv-x="250" />
<glyph unicode="&#xa0;" horiz-adv-x="250" />
<glyph unicode="!" horiz-adv-x="289" d="M52 83q0 38 26.5 64.5t64.5 26.5t64.5 -26.5t26.5 -64.5t-26.5 -64.5t-64.5 -26.5t-64.5 26.5t-26.5 64.5zM75 236v438h139v-438h-139z" />
<glyph unicode="&#x22;" horiz-adv-x="387" d="M225 420v261h122v-261h-122zM40 420v261h122v-261h-122z" />
<glyph unicode="#" horiz-adv-x="757" d="M712 400h-131l-29 -135h126v-111h-149l-33 -154h-123l32 154h-136l-33 -154h-123l32 154h-100v111h124l28 135h-118v116h143l33 157h124l-33 -157h136l33 157h124l-33 -157h106v-116zM429 265l28 135h-136l-29 -135h137z" />
<glyph unicode="$" horiz-adv-x="514" d="M281 547q-39 0 -59.5 -16t-20.5 -41t25 -44.5t65.5 -37.5t61 -28.5t47 -29t42.5 -38.5q37 -50 37 -121t-48.5 -124t-131.5 -69v-116h-121v113q-83 8 -138 39v155q91 -66 194 -66q35 0 58 18.5t23 48.5q0 22 -11 33t-18.5 16.5t-22 13t-24.5 12.5q-31 16 -61 28 q-65 30 -104.5 74t-39.5 119t51 126.5t142 62.5v115h122v-117q53 -8 100 -29v-144q-81 47 -168 47z" />
<glyph unicode="%" horiz-adv-x="973" d="M665 182q0 -30 21.5 -51.5t51.5 -21.5t51.5 21.5t21.5 51.5t-21.5 51.5t-51.5 21.5t-51.5 -21.5t-21.5 -51.5zM162 532q0 -30 21.5 -51.5t51.5 -21.5t51.5 21.5t21.5 51.5t-21.5 51.5t-51.5 21.5t-51.5 -21.5t-21.5 -51.5zM45 532q0 79 55.5 134.5t134.5 55.5 t134.5 -55.5t55.5 -134.5t-55.5 -134.5t-134.5 -55.5t-134.5 55.5t-55.5 134.5zM548 182q0 79 55.5 134.5t134.5 55.5t134.5 -55.5t55.5 -134.5t-55.5 -134.5t-134.5 -55.5t-134.5 55.5t-55.5 134.5zM227 -1l379 708h132l-380 -708h-131z" />
<glyph unicode="&#x26;" horiz-adv-x="742" d="M335 -8q-132 0 -208.5 56t-76.5 136q0 124 142 170q-68 75 -68 148q0 89 61 137.5t160 48.5t158.5 -49.5t59.5 -138.5q0 -59 -33.5 -104.5t-108.5 -83.5l98 -96q18 39 18 85h131q0 -100 -56 -178l125 -123h-179l-39 39q-81 -47 -184 -47zM395.5 549q-20.5 20 -53 20 t-51.5 -17t-19 -48q0 -44 69 -113q75 41 75 101q0 37 -20.5 57zM215.5 237q-16.5 -20 -16.5 -51t39 -52.5t92 -21.5t95 18q-131 128 -137 133.5t-10 9.5q-46 -16 -62.5 -36z" />
<glyph unicode="'" horiz-adv-x="202" d="M40 420v261h122v-261h-122z" />
<glyph unicode="(" horiz-adv-x="338" d="M203 -196q-163 203 -163 459t157 444h151q-73 -89 -113.5 -216t-40.5 -234.5t42 -231t122 -221.5h-155z" />
<glyph unicode=")" horiz-adv-x="338" d="M141 707q157 -188 157 -444t-163 -459h-155q80 98 122 221.5t42 231t-40.5 234.5t-113.5 216h151z" />
<glyph unicode="*" horiz-adv-x="508" d="M339 428h-2q21 -16 36 -36l58 -80l-96 -69l-57 79q-16 22 -22 43q-8 -19 -24 -42l-59 -80l-95 70l58 79q15 20 35 35q-23 0 -49 9l-94 31l37 112l93 -30q26 -9 45 -23q-7 24 -7 50v98h118v-98q0 -26 -7 -50q18 13 44 22l94 30l36 -112l-92 -30q-25 -8 -50 -8z" />
<glyph unicode="+" horiz-adv-x="589" d="M544 404v-130h-183v-180h-134v180h-182v130h182v181h134v-181h183z" />
<glyph unicode="," horiz-adv-x="294" d="M-7 -127l101 261h161l-136 -261h-126z" />
<glyph unicode="-" horiz-adv-x="357" d="M45 202v120h267v-120h-267z" />
<glyph unicode="." horiz-adv-x="258" d="M40 81q0 37 26 63t63 26t63 -26t26 -63t-26 -63t-63 -26t-63 26t-26 63z" />
<glyph unicode="/" horiz-adv-x="464" d="M-2 -103l359 810h152l-360 -810h-151z" />
<glyph unicode="0" horiz-adv-x="547" d="M184 330q0 -208 89.5 -208t89.5 208t-89.5 208t-89.5 -208zM95 83.5q-60 91.5 -60 247t60 246.5t178 91t178.5 -91t60.5 -246t-60.5 -247t-178.5 -92t-178 91.5z" />
<glyph unicode="1" horiz-adv-x="380" d="M320 654v-654h-145v497l-165 -99v149l184 107h126z" />
<glyph unicode="2" horiz-adv-x="501" d="M466 124v-124h-436v113q108 74 190.5 164t82.5 159q0 42 -25 66.5t-76 24.5q-85 0 -161 -63v141q33 24 86 41t104 17q102 0 162.5 -53.5t60.5 -149.5q0 -173 -220 -336h232z" />
<glyph unicode="3" horiz-adv-x="483" d="M205 663q106 0 168 -50.5t62 -131.5q0 -111 -101 -153q114 -27 114 -148q0 -84 -63.5 -134.5t-174 -50.5t-180.5 34v140q80 -44 165 -44q49 0 76.5 21t27.5 53q0 73 -135 73h-35v120h35q53 0 87 18t34 54q0 69 -90 69q-69 0 -139 -43v136q74 37 149 37z" />
<glyph unicode="4" horiz-adv-x="562" d="M542 263v-124h-80v-139h-145v139h-287v124l200 393h232v-393h80zM317 263v296l-144 -296h144z" />
<glyph unicode="5" horiz-adv-x="500" d="M205 532v-111q22 3 44 3q107 0 164 -55t57 -153.5t-67.5 -160t-184 -61.5t-183.5 35v138q68 -42 152 -42q134 0 134 96q0 36 -27.5 57t-93.5 21t-137 -33v390h367v-124h-225z" />
<glyph unicode="6" horiz-adv-x="537" d="M370 536q-71 0 -116.5 -43.5t-61.5 -116.5q54 46 134.5 46t133 -57t52.5 -154.5t-62.5 -164t-177 -66.5t-176 86.5t-61.5 232.5q0 167 91.5 267t231.5 100q53 0 103 -16v-135q-39 21 -91 21zM280 110q39 0 61 27t22 70t-21.5 67.5t-60.5 24.5q-54 0 -95 -43 q11 -146 94 -146z" />
<glyph unicode="7" horiz-adv-x="480" d="M20 655h440v-124l-254 -531h-154l255 531h-287v124z" />
<glyph unicode="8" horiz-adv-x="545" d="M510 182q0 -86 -66.5 -139t-174 -53t-171 50.5t-63.5 136.5q0 106 95 153q-85 49 -85 141t63.5 143.5t163.5 51.5t163.5 -49t63.5 -142.5t-82 -141.5q93 -43 93 -151zM270 550q-40 0 -59 -22.5t-19 -57.5t23 -56t57.5 -21t57.5 21t23 59q0 77 -83 77zM202.5 128 q21.5 -22 68 -22t70 22.5t23.5 56.5t-24.5 57t-69 23t-67 -25t-22.5 -57.5t21.5 -54.5z" />
<glyph unicode="9" horiz-adv-x="533" d="M170 124q78 0 121 35.5t56 111.5q-43 -43 -130.5 -43t-142 56.5t-54.5 152.5t61.5 161t172.5 65t177.5 -84.5t66.5 -230.5q0 -179 -85 -267.5t-227 -88.5q-68 0 -119 19v138q52 -25 103 -25zM254 346q60 0 97 45q-12 142 -96 142q-39 0 -62.5 -25t-23.5 -67.5t23 -68.5 t62 -26z" />
<glyph unicode=":" horiz-adv-x="286" d="M55 88q0 37 25.5 62.5t62.5 25.5t62.5 -25.5t25.5 -62.5t-25.5 -62.5t-62.5 -25.5t-62.5 25.5t-25.5 62.5zM55 419q0 37 25.5 62.5t62.5 25.5t62.5 -25.5t25.5 -62.5t-25.5 -62.5t-62.5 -25.5t-62.5 25.5t-25.5 62.5z" />
<glyph unicode=";" horiz-adv-x="294" d="M-7 -127l101 261h161l-136 -261h-126zM73 419q0 37 25.5 62.5t62.5 25.5t62.5 -25.5t25.5 -62.5t-25.5 -62.5t-62.5 -25.5t-62.5 25.5t-25.5 62.5z" />
<glyph unicode="&#x3c;" horiz-adv-x="589" d="M45 271v138l499 178v-144l-354 -103l354 -103v-144z" />
<glyph unicode="=" horiz-adv-x="589" d="M45 166v120h499v-120h-499zM45 394v120h499v-120h-499z" />
<glyph unicode="&#x3e;" horiz-adv-x="589" d="M544 409v-138l-499 -178v144l354 103l-354 103v144z" />
<glyph unicode="?" horiz-adv-x="458" d="M103 83q0 38 26.5 64.5t64.5 26.5t64.5 -26.5t26.5 -64.5t-26.5 -64.5t-64.5 -26.5t-64.5 26.5t-26.5 64.5zM65 654q60 28 153.5 28t151.5 -49.5t58 -133.5q0 -45 -18 -81.5t-45 -57.5q-56 -42 -100 -42l-3 -82h-133l-3 151q154 0 154 94q0 36 -21.5 57.5t-63.5 21.5 q-65 0 -130 -43v137z" />
<glyph unicode="@" horiz-adv-x="977" d="M468 -216q-134 0 -233 58.5t-147 151.5t-48 214t65 230t175 171t230.5 62t216 -46t155.5 -137.5t60 -210t-59.5 -198t-143.5 -79.5q-118 0 -153 109q-20 -53 -60.5 -80.5t-91.5 -27.5q-81 0 -128 61.5t-47 158t61 160t143 63.5t121 -73q4 49 5 71h116l-13 -221 q0 -108 51 -108q35 0 57 41.5t22 112.5q0 142 -86.5 214t-221.5 72q-103 0 -183.5 -51.5t-121.5 -132.5t-41 -173q0 -135 86 -214.5t213 -79.5q105 0 201 46l-4 -123q-92 -41 -196 -41zM576 204l1 40q-6 47 -31 71.5t-62.5 24.5t-67 -35t-29.5 -89.5t26.5 -82.5t61 -28 t63 25.5t38.5 73.5z" />
<glyph unicode="A" horiz-adv-x="690" d="M502 0l-41 138h-236l-41 -138h-161l225 674h194l225 -674h-165zM262 262h162q-67 229 -81 300q-6 -44 -81 -300z" />
<glyph unicode="B" horiz-adv-x="605" d="M65 674h262q111 0 169 -52.5t58 -133.5q0 -53 -28 -93t-73 -54q117 -35 117 -158q0 -80 -57.5 -131.5t-156.5 -51.5h-291v674zM219 551v-151h57q60 0 90.5 22t30.5 58q0 71 -96 71h-82zM219 123h81q114 0 114 78t-113 78h-82v-156z" />
<glyph unicode="C" horiz-adv-x="613" d="M563 497q-75 46 -161.5 46t-141.5 -56.5t-55 -150.5t55 -148.5t145.5 -54.5t157.5 48v-151q-61 -38 -176 -38q-148 0 -247.5 95.5t-99.5 248.5t96.5 250t251.5 97q114 0 175 -38v-148z" />
<glyph unicode="D" horiz-adv-x="683" d="M65 674h232q152 0 249 -93.5t97 -232.5q0 -162 -95.5 -255t-252.5 -93h-230v674zM223 126h70q93 0 143.5 58t50.5 156t-51 152.5t-144 54.5h-69v-421z" />
<glyph unicode="E" horiz-adv-x="544" d="M220 123h264v-123h-419v674h415v-123h-260v-153h232v-122h-232v-153z" />
<glyph unicode="F" horiz-adv-x="506" d="M476 551h-256v-174h223v-123h-223v-254h-155v674h411v-123z" />
<glyph unicode="G" horiz-adv-x="706" d="M646 402v-340q-96 -70 -250 -70t-255 93t-101 252t105.5 254t267.5 95q114 0 197 -42v-154q-96 55 -194 55t-154 -56.5t-56 -151t55 -150.5t150 -56q43 0 85 13v127h-109v131h259z" />
<glyph unicode="H" horiz-adv-x="686" d="M466 674h155v-674h-155v269h-247v-269h-154v674h154v-274h247v274z" />
<glyph unicode="I" horiz-adv-x="304" d="M75 0v674h154v-674h-154z" />
<glyph unicode="J" horiz-adv-x="392" d="M107 132q71 0 71 76v465h154v-469q0 -97 -51.5 -151t-143.5 -54q-69 0 -107 20v136q37 -23 77 -23z" />
<glyph unicode="K" horiz-adv-x="662" d="M406 337l239 -337h-193l-226 335l218 339h183zM65 0v674h154v-674h-154z" />
<glyph unicode="L" horiz-adv-x="488" d="M219 135h249v-135h-403v674h154v-539z" />
<glyph unicode="M" horiz-adv-x="893" d="M50 0l58 674h169q121 -315 136.5 -361t25.5 -87q16 66 70 204l95 244h169l70 -674h-154l-25 261l-13 197q-21 -61 -167 -451h-91q-138 372 -159 451q0 -71 -9 -197l-21 -261h-154z" />
<glyph unicode="N" horiz-adv-x="697" d="M65 0v674h169l157 -279q68 -121 97 -205q-10 74 -10 205v279h154v-674h-169l-161 279q-63 107 -90 184l-8 25q15 -90 15 -209v-279h-154z" />
<glyph unicode="O" horiz-adv-x="736" d="M205 339q0 -95 44 -150.5t119 -55.5t119 55.5t44 150.5t-44 150.5t-119 55.5t-119 -55.5t-44 -150.5zM129 88q-89 95 -89 250.5t89.5 251t239 95.5t238.5 -95t89 -250.5t-89.5 -251t-239 -95.5t-238.5 95z" />
<glyph unicode="P" horiz-adv-x="563" d="M65 674h232q112 0 181.5 -63t69.5 -167t-72.5 -165t-178.5 -61h-78v-218h-154v674zM219 340h76q47 6 72 36.5t25 71t-26 70.5t-71 33h-76v-211z" />
<glyph unicode="Q" horiz-adv-x="741" d="M40 339q0 155 89.5 250.5t239 95.5t238.5 -95t89 -251q0 -106 -43 -186t-121 -122l206 -115l-175 -67l-199 144q-148 1 -236 96t-88 250zM205 339q0 -95 44 -150.5t119 -55.5t119 55.5t44 150.5t-44 150.5t-119 55.5t-119 -55.5t-44 -150.5z" />
<glyph unicode="R" horiz-adv-x="614" d="M219 234v-234h-154v674h233q113 0 181.5 -60t68.5 -156q0 -144 -123 -199l171 -259h-184l-146 234h-47zM219 549v-190h73q100 0 100 98q0 43 -26 67.5t-71 24.5h-76z" />
<glyph unicode="S" horiz-adv-x="514" d="M286 547q-39 0 -59.5 -16t-20.5 -41t25 -44.5t65.5 -37.5t61 -28.5t47 -29t41.5 -38.5q38 -50 38 -116q0 -91 -67 -147.5t-182 -56.5t-190 42v155q91 -66 194 -66q35 0 58 18.5t23 48.5q0 22 -11 33t-18.5 16.5t-22 13t-24.5 12.5q-31 15 -61 28q-65 30 -104.5 74 t-39.5 124t64 133.5t171 53.5t180 -34v-144q-81 47 -168 47z" />
<glyph unicode="T" horiz-adv-x="544" d="M514 674v-124h-164v-550h-155v550h-165v124h484z" />
<glyph unicode="U" horiz-adv-x="668" d="M454 260v414h154v-413q0 -132 -74 -201.5t-199 -69.5t-200 69t-75 195v420h154v-419q0 -125 120 -125t120 130z" />
<glyph unicode="V" horiz-adv-x="659" d="M640 674l-227 -674h-170l-224 674h166l81 -269q44 -144 64 -266q16 104 65 266l81 269h164z" />
<glyph unicode="W" horiz-adv-x="971" d="M431 664h114q110 -395 132 -496q13 89 56 259l62 247h157l-180 -674h-172q-103 372 -112 426q-3 -41 -54 -213l-62 -213h-172l-181 674h162q82 -328 95 -392.5t20 -113.5q16 73 135 496z" />
<glyph unicode="X" horiz-adv-x="663" d="M331 210l-118 -210h-186l213 342l-203 332h179l112 -197l107 197h188l-204 -333l217 -341h-183z" />
<glyph unicode="Y" horiz-adv-x="643" d="M397 0h-154v247l-230 427h180q101 -242 126 -314q10 45 88 216l44 98h179l-233 -426v-248z" />
<glyph unicode="Z" horiz-adv-x="621" d="M549 674v-109l-304 -441h316v-124h-501v113l302 437h-296v124h483z" />
<glyph unicode="[" horiz-adv-x="363" d="M348 580h-145v-648h145v-128h-283v903h283v-127z" />
<glyph unicode="\" horiz-adv-x="464" d="M107 707l359 -810h-151l-360 810h152z" />
<glyph unicode="]" horiz-adv-x="363" d="M298 707v-903h-283v128h145v648h-145v127h283z" />
<glyph unicode="^" horiz-adv-x="491" d="M458 332h-135l-77 146l-78 -146h-135l151 262h123z" />
<glyph unicode="_" horiz-adv-x="546" d="M20 -166v121h506v-121h-506z" />
<glyph unicode="`" horiz-adv-x="500" d="M280 798l86 -177h-121l-111 177h146z" />
<glyph unicode="a" horiz-adv-x="516" d="M74 482q60 34 170.5 34t163.5 -46.5t53 -144.5v-325h-143v62q-32 -65 -126 -65q-74 0 -115.5 42t-41.5 110t53.5 108.5t158.5 40.5h64v35q0 64 -83.5 64t-153.5 -46v131zM311 208h-47q-37 0 -57 -16t-20 -41q0 -51 59 -51q31 0 48 19t17 52v37z" />
<glyph unicode="b" horiz-adv-x="611" d="M206 707v-278q52 84 149 84t159 -69t62 -182.5t-59.5 -190.5t-159.5 -77t-151 85v-79h-146v707h146zM237 155q31 -39 79 -39t80 37.5t32 101t-31.5 100.5t-77.5 37t-79.5 -35t-33.5 -99t31 -103z" />
<glyph unicode="c" horiz-adv-x="469" d="M223 148q36 -37 97 -37t119 35v-122q-59 -32 -142 -32q-114 0 -188 72.5t-74 187.5q2 114 74 188.5t197 74.5q77 0 133 -29v-125q-53 33 -116 33t-101 -36.5t-39 -105.5q4 -67 40 -104z" />
<glyph unicode="d" horiz-adv-x="611" d="M405 707h146v-707h-146v79q-51 -85 -151 -85t-159.5 77t-59.5 190.5t62 182.5t159 69t149 -84v278zM215 153.5q32 -37.5 80 -37.5t79 39t31 103t-33.5 99t-79.5 35t-77.5 -37t-31.5 -100.5t32 -101z" />
<glyph unicode="e" horiz-adv-x="533" d="M458 29q-52 -34 -168 -34t-185.5 72.5t-69.5 190t67.5 186t168 68.5t159.5 -59.5t59 -177.5q0 -23 -8 -79h-298q15 -42 52 -65t89 -23q77 0 134 43v-122zM353 300v12q-7 89 -78 89q-35 0 -62 -25.5t-36 -75.5h176z" />
<glyph unicode="f" horiz-adv-x="346" d="M366 592q-28 11 -58 11q-67 0 -67 -77v-19h95v-107h-95v-400h-145v400h-66v107h66v19q0 92 51.5 143t142.5 51q47 0 76 -10v-118z" />
<glyph unicode="g" horiz-adv-x="585" d="M385 507h145v-458q0 -122 -73 -183.5t-181.5 -61.5t-188.5 38v149q70 -56 172 -56q66 0 96 28t30 88v34q-44 -68 -134 -68t-150.5 62t-60.5 177t58.5 185.5t151 70.5t135.5 -72v67zM216 166q24 -33 70 -33t72.5 35.5t26.5 85.5q0 136 -99 136q-44 0 -69 -34t-25 -95.5 t24 -94.5z" />
<glyph unicode="h" horiz-adv-x="580" d="M206 707v-286q39 91 152 91q74 0 120.5 -47t46.5 -142v-323h-146v300q0 44 -22 69t-57 25q-29 0 -58 -20q-36 -26 -36 -106v-268h-146v707h146z" />
<glyph unicode="i" horiz-adv-x="276" d="M53 654q0 35 25 60t60 25t60 -25t25 -60t-25 -60t-60 -25t-60 25t-25 60zM65 0v507h146v-507h-146z" />
<glyph unicode="j" horiz-adv-x="274" d="M56 654q0 35 25 60t60 25t60 -25t25 -60t-25 -60t-60 -25t-60 25t-25 60zM17 -86q52 0 52 67v526h145v-528q0 -80 -45 -128.5t-130 -48.5q-35 0 -79 16v111q33 -15 57 -15z" />
<glyph unicode="k" horiz-adv-x="548" d="M206 0h-146v690h146v-410l160 227h168l-176 -243l179 -264h-169l-162 249v-249z" />
<glyph unicode="l" horiz-adv-x="276" d="M65 0v707h146v-707h-146z" />
<glyph unicode="m" horiz-adv-x="859" d="M206 507v-79q42 84 146 84t139 -96q17 45 57 70.5t94 25.5q75 0 118.5 -47.5t43.5 -139.5v-325h-146v301q0 43 -17 68t-50 25t-59.5 -27.5t-26.5 -98.5v-268h-146v301q0 43 -17 68t-50 25t-59.5 -27.5t-26.5 -98.5v-268h-146v507h146z" />
<glyph unicode="n" horiz-adv-x="580" d="M206 507v-86q19 42 58.5 66.5t94.5 24.5q78 0 122 -46.5t44 -136.5v-329h-146v302q0 45 -21 68.5t-60 23.5t-65.5 -31.5t-26.5 -94.5v-268h-146v507h146z" />
<glyph unicode="o" horiz-adv-x="567" d="M283 400q-48 0 -72 -41t-24 -106t24.5 -106.5t73 -41.5t72 40.5t23.5 105.5q0 149 -97 149zM466.5 66.5q-65.5 -74.5 -183.5 -74.5t-183 71.5t-65 186t68 190t183.5 75.5t180.5 -73t65 -187t-65.5 -188.5z" />
<glyph unicode="p" horiz-adv-x="611" d="M206 507v-78q53 84 152 84t158.5 -69.5t59.5 -185.5t-57.5 -190t-160 -74t-152.5 81v-262h-146v694h146zM238 155q32 -39 81 -39t79 36.5t30 102.5t-30.5 101.5t-77 35.5t-80.5 -35t-34 -99t32 -103z" />
<glyph unicode="q" horiz-adv-x="611" d="M405 507h146v-694h-146v266q-51 -85 -152.5 -85t-159.5 74t-58 190t60 185.5t159 69.5t151 -84v78zM215 153.5q32 -37.5 80 -37.5t79 39t31 103t-33.5 99t-79.5 35t-77.5 -37t-31.5 -100.5t32 -101z" />
<glyph unicode="r" horiz-adv-x="370" d="M205 507v-94q14 44 46.5 70.5t75.5 26.5q24 0 38 -4v-138q-24 11 -55 11q-47 0 -76 -34.5t-29 -91.5v-253h-146l1 507h145z" />
<glyph unicode="s" horiz-adv-x="436" d="M256 398q-26 0 -40 -10.5t-14 -23t5 -20.5t16.5 -15t22 -12.5t28.5 -13.5q68 -29 100 -65t32 -85q0 -75 -54 -116t-144.5 -41t-152.5 31v130q69 -48 146 -48q55 0 55 35q0 19 -22 32q-16 9 -43 20.5t-37 16.5q-101 48 -101 144q0 74 56.5 115t137.5 41t133 -21v-125 q-53 31 -124 31z" />
<glyph unicode="t" horiz-adv-x="386" d="M229 400v-233q0 -27 15.5 -41t48 -14t63.5 20v-121q-37 -16 -100 -16q-173 0 -173 173v232h-73v107h73v120h146v-120h118v-107h-118z" />
<glyph unicode="u" horiz-adv-x="580" d="M374 507h146v-507h-146v81q-40 -85 -154 -85q-78 0 -121.5 43.5t-43.5 128.5v339h146v-306q0 -89 78 -89q95 0 95 127v268z" />
<glyph unicode="v" horiz-adv-x="536" d="M192 0l-187 507h153q80 -261 91.5 -308t18.5 -86q9 65 45 178l68 216h150l-189 -507h-150z" />
<glyph unicode="w" horiz-adv-x="806" d="M168 0l-163 507h151q77 -292 87 -369q7 60 49 202l49 167h126q83 -289 96 -369q7 59 47 202l47 167h144l-162 -507h-150q-73 277 -85 354q-10 -67 -42 -188l-44 -166h-150z" />
<glyph unicode="x" horiz-adv-x="526" d="M340 253l169 -253h-159l-85 152l-91 -152h-158l181 254l-170 253h162l82 -151l91 151h160z" />
<glyph unicode="y" horiz-adv-x="532" d="M103 -198q-31 0 -56 5v116q16 -4 34 -4q83 0 120 89l-196 499h159q97 -278 109 -335q13 49 104 335h150l-183 -492q-79 -213 -241 -213z" />
<glyph unicode="z" horiz-adv-x="479" d="M427 507v-101l-222 -293h234v-113h-399v105l222 290h-213v112h378z" />
<glyph unicode="{" horiz-adv-x="380" d="M40 325h17q39 0 62 29t23 67q0 16 -6 54t-6 60q0 78 44.5 129t114.5 51q31 0 66 -12v-135q-15 9 -33.5 9t-33.5 -15.5t-15 -33.5t6 -57.5t6 -63.5q0 -61 -34.5 -103.5t-81.5 -48.5q47 -6 81.5 -49t34.5 -104q0 -24 -6 -63.5t-6 -57.5t15 -33.5t33.5 -15.5t33.5 9v-135 q-35 -12 -66 -12q-70 0 -114.5 51t-44.5 129q0 22 6 60t6 54q0 38 -23 67.5t-62 29.5l-17 -1v141z" />
<glyph unicode="|" horiz-adv-x="280" d="M70 -194v889h140v-889h-140z" />
<glyph unicode="}" horiz-adv-x="380" d="M323 325h17v-141q-7 1 -17 1q-39 0 -62 -29.5t-23 -67.5q0 -16 6 -54t6 -60q0 -78 -44.5 -129t-114.5 -51q-31 0 -66 12v135q15 -9 33.5 -9t33.5 15.5t15 33.5t-6 57.5t-6 63.5q0 61 34.5 104t81.5 49q-47 6 -81.5 48.5t-34.5 103.5q0 24 6 63.5t6 57.5t-15 33.5 t-33.5 15.5t-33.5 -9v135q35 12 66 12q70 0 114.5 -51t44.5 -129q0 -22 -6 -60t-6 -54q0 -38 23 -67t62 -29z" />
<glyph unicode="~" horiz-adv-x="654" d="M452 189q-57 0 -121.5 24.5t-98 24.5t-55.5 -14t-48 -44l-101 80q31 44 76 76.5t103.5 32.5t124 -24.5t94 -24.5t50.5 14t48 45l101 -81q-77 -109 -173 -109z" />
<glyph unicode="&#xa1;" horiz-adv-x="289" d="M75 -165v438h139v-438h-139zM52 426q0 38 26.5 64.5t64.5 26.5t64.5 -26.5t26.5 -64.5t-26.5 -64.5t-64.5 -26.5t-64.5 26.5t-26.5 64.5z" />
<glyph unicode="&#xa2;" horiz-adv-x="478" d="M438 361q-53 33 -116.5 33t-103 -37t-40.5 -105q4 -66 41.5 -103.5t99 -37.5t119.5 35v-122q-35 -18 -79 -26v-109h-121v108q-92 18 -150 87t-58 168q2 97 56.5 167t150.5 89v112h122v-110q43 -8 79 -27v-122z" />
<glyph unicode="&#xa3;" horiz-adv-x="540" d="M507 123v-123h-462v121q73 38 73 130v16h-74v106h60q-3 24 -3 47q0 113 59 176.5t175 63.5q85 0 137 -32v-138q-46 33 -104 33q-105 0 -105 -109q0 -13 2 -41h166v-106h-155v-17q0 -88 -61 -127h292z" />
<glyph unicode="&#xa4;" horiz-adv-x="571" d="M180 311q0 -44 30 -75.5t76 -31.5t76 31.5t30 75.5t-30 75.5t-76 31.5t-76 -31.5t-30 -75.5zM87 199q-29 52 -29 111.5t28 110.5l-58 57l85 82l58 -57q51 28 114 28t115 -27l58 56l85 -82l-58 -57q29 -53 29 -111t-30 -111l59 -57l-85 -82l-59 56q-50 -26 -113.5 -26 t-114.5 27l-58 -57l-85 82z" />
<glyph unicode="&#xa5;" horiz-adv-x="635" d="M568 361v-90h-164l-11 -19v-45h175v-90h-175v-117h-154v117h-173v90h173v45l-11 19h-162v90h111l-168 294h180l126 -246l132 246h179l-170 -294h112z" />
<glyph unicode="&#xa6;" horiz-adv-x="280" d="M210 -117h-140v338h140v-338zM210 369h-140v338h140v-338z" />
<glyph unicode="&#xa7;" horiz-adv-x="599" d="M479 501q-83 48 -164 48t-81 -49q0 -18 10 -26.5t17.5 -14t23 -14t29 -15.5t37.5 -19t44 -23q69 -36 102.5 -78t33.5 -110t-42 -118q31 -41 31 -90q0 -83 -64.5 -131t-179.5 -48t-190 42v155q91 -66 194 -66q82 0 82 48q0 26 -30 45.5t-154 73.5q-121 54 -121 183 q0 62 46 117q-30 38 -30 88q0 82 61.5 131.5t165 49.5t179.5 -35v-144zM216 328q-11 -19 -11 -42t26 -44t76 -42.5t68 -31.5q8 16 8 31t-5.5 26.5t-13 20t-24 18.5t-29.5 16q-47 24 -95 48z" />
<glyph unicode="&#xa8;" horiz-adv-x="500" d="M324.5 651.5q-23.5 23.5 -23.5 58t23.5 58t59 23.5t59.5 -23.5t24 -58t-24 -58t-59.5 -23.5t-59 23.5zM56.5 651.5q-23.5 23.5 -23.5 58t23.5 58t59 23.5t59 -23.5t23.5 -58t-23.5 -58t-59 -23.5t-59 23.5z" />
<glyph unicode="&#xa9;" horiz-adv-x="761" d="M356.5 282.5q20.5 -19.5 56 -19.5t74.5 24v-95q-39 -21 -102 -21t-113.5 46t-50 120.5t48 121.5t127.5 47q49 0 90 -22v-94q-35 22 -71.5 22t-58.5 -19t-23 -56q2 -35 22.5 -54.5zM202.5 514.5q-70.5 -70.5 -70.5 -178.5t70.5 -178t178 -70t178 70t70.5 178t-70.5 178.5 t-178 70.5t-178 -70.5zM35 338q0 143 101.5 244t244.5 101t244 -101.5t101 -244t-101 -244t-244 -101.5t-244.5 101.5t-101.5 244.5z" />
<glyph unicode="&#xaa;" horiz-adv-x="400" d="M42 800q52 28 145.5 28t138 -39t44.5 -121v-276h-120v52q-26 -55 -108 -55q-62 0 -97 35t-35 93t45 93t134 35h55v28q0 54 -71 54t-131 -38v111zM244 568h-41q-31 0 -48 -13.5t-17 -35.5q0 -43 51 -43q25 0 40 16.5t15 43.5v32z" />
<glyph unicode="&#xab;" horiz-adv-x="592" d="M550 415l-146 -162l146 -162h-152l-152 162l152 162h152zM330 415l-146 -162l146 -162h-152l-152 162l152 162h152z" />
<glyph unicode="&#xac;" horiz-adv-x="603" d="M558 136h-120v165h-393v116h513v-281z" />
<glyph unicode="&#xad;" horiz-adv-x="357" d="M45 202v120h267v-120h-267z" />
<glyph unicode="&#xae;" horiz-adv-x="492" d="M76.5 720q66.5 66 169 66t169.5 -66.5t67 -168.5t-67 -168t-169.5 -66t-169 65.5t-66.5 168.5t66.5 169zM119.5 424q47.5 -48 127 -48t127 48t47.5 127t-47.5 128t-127 49t-127 -49t-47.5 -128t47.5 -127zM174 677h70q91 0 91 -75q0 -48 -38 -66l60 -96h-66l-50 86h-13 v-86h-54v237zM228 632v-61h22q13 0 20.5 9t7.5 22q0 30 -32 30h-18z" />
<glyph unicode="&#xaf;" horiz-adv-x="500" d="M428 651h-356v99h356v-99z" />
<glyph unicode="&#xb0;" horiz-adv-x="440" d="M132 495q0 -36 26 -62t62 -26t62 26t26 62t-26 62t-62 26t-62 -26t-26 -62zM30 495q0 79 55.5 134.5t134.5 55.5t134.5 -55.5t55.5 -134.5t-55.5 -134.5t-134.5 -55.5t-134.5 55.5t-55.5 134.5z" />
<glyph unicode="&#xb1;" horiz-adv-x="589" d="M361 446h183v-120h-183v-140h-134v140h-182v120h182v139h134v-139zM45 28v120h499v-120h-499z" />
<glyph unicode="&#xb2;" horiz-adv-x="365" d="M35 392v77q72 52 121 108t49 100q0 51 -61 51q-47 0 -99 -37v105q52 33 119 33t109.5 -36.5t42.5 -100.5q0 -115 -148 -210h162v-90h-295z" />
<glyph unicode="&#xb3;" horiz-adv-x="353" d="M109 654h14q77 0 77 41t-51.5 41t-97.5 -35v101q47 27 112.5 27t106.5 -33.5t41 -87.5q0 -39 -21.5 -64.5t-59.5 -33.5q38 -4 63 -30t25 -75.5t-41.5 -83t-116.5 -33.5t-125 27v94q57 -30 113 -30q28 0 44.5 13t16.5 32q0 41 -85 41h-15v89z" />
<glyph unicode="&#xb4;" horiz-adv-x="500" d="M134 621l86 177h146l-111 -177h-121z" />
<glyph unicode="&#xb5;" horiz-adv-x="585" d="M379 507h146v-507h-146v60q-34 -64 -104 -64q-36 0 -69 14v-190h-146v687h146v-306q0 -43 25 -66t66 -23t61.5 28.5t20.5 98.5v268z" />
<glyph unicode="&#xb6;" horiz-adv-x="592" d="M527 674v-822h-111l1 822h110zM324 674v-822h-111v465q-97 0 -150 52.5t-53 127t54.5 126t167.5 51.5h92z" />
<glyph unicode="&#xb7;" horiz-adv-x="268" d="M45 252q0 37 26 63t63 26t63 -26t26 -63t-26 -63t-63 -26t-63 26t-26 63z" />
<glyph unicode="&#xb8;" horiz-adv-x="500" d="M339 -125q0 -63 -45.5 -103t-133.5 -40v91q36 0 55.5 17t19.5 46t-26 63h113q17 -27 17 -74z" />
<glyph unicode="&#xb9;" horiz-adv-x="279" d="M229 825v-433h-103v321l-116 -62v98l134 76h85z" />
<glyph unicode="&#xba;" horiz-adv-x="442" d="M220 733q-41 0 -61 -35t-20 -90.5t21 -90.5t62.5 -35t61 34t19.5 89q0 128 -83 128zM376.5 449q-55.5 -63 -156 -63t-155.5 61t-55 158t57.5 161t156.5 64t153.5 -62t54.5 -159t-55.5 -160z" />
<glyph unicode="&#xbb;" horiz-adv-x="591" d="M413 415l152 -162l-152 -162h-152l146 162l-146 162h152zM193 415l152 -162l-152 -162h-152l146 162l-146 162h152z" />
<glyph unicode="&#xbf;" horiz-adv-x="458" d="M390 427q0 -38 -26.5 -64.5t-64.5 -26.5t-64.5 26.5t-26.5 64.5t26.5 64.5t64.5 26.5t64.5 -26.5t26.5 -64.5zM428 -144q-60 -28 -153.5 -28t-151.5 49.5t-58 133.5q0 45 18 81.5t45 57.5q56 42 100 42l3 82h133l3 -151q-154 0 -154 -94q0 -36 21.5 -57.5t63.5 -21.5 q65 0 130 43v-137z" />
<glyph unicode="&#xc0;" horiz-adv-x="690" d="M502 0l-41 138h-236l-41 -138h-161l225 674h194l225 -674h-165zM262 262h162q-67 229 -81 300q-6 -44 -81 -300zM406 721h-121l-111 177h146z" />
<glyph unicode="&#xc1;" horiz-adv-x="690" d="M502 0l-41 138h-236l-41 -138h-161l225 674h194l225 -674h-165zM262 262h162q-67 229 -81 300q-6 -44 -81 -300zM527 898l-111 -177h-121l86 177h146z" />
<glyph unicode="&#xc2;" horiz-adv-x="690" d="M502 0l-41 138h-236l-41 -138h-161l225 674h194l225 -674h-165zM262 262h162q-67 229 -81 300q-6 -44 -81 -300zM346 817l-79 -96h-139l156 177h124l156 -177h-139z" />
<glyph unicode="&#xc3;" horiz-adv-x="690" d="M502 0l-41 138h-236l-41 -138h-161l225 674h194l225 -674h-165zM262 262h162q-67 229 -81 300q-6 -44 -81 -300zM409 741q-33 0 -69 17.5t-56 17.5t-34 -8.5t-36 -34.5l-65 64q16 34 47.5 58t68 24t77 -17.5t59.5 -17.5q49 0 70 43l74 -61q-43 -85 -136 -85z" />
<glyph unicode="&#xc4;" horiz-adv-x="690" d="M502 0l-41 138h-236l-41 -138h-161l225 674h194l225 -674h-165zM262 262h162q-67 229 -81 300q-6 -44 -81 -300zM276.5 751.5q-23.5 -23.5 -59 -23.5t-59 23.5t-23.5 58t23.5 58t59 23.5t59 -23.5t23.5 -58t-23.5 -58zM545 751.5q-24 -23.5 -59.5 -23.5t-59 23.5 t-23.5 58t23.5 58t59 23.5t59.5 -23.5t24 -58t-24 -58z" />
<glyph unicode="&#xc5;" horiz-adv-x="690" d="M502 0l-41 138h-236l-41 -138h-161l225 674h194l225 -674h-165zM262 262h162q-67 229 -81 300q-6 -44 -81 -300zM349 710q-56 0 -96 40t-40 96t40 96t96 40t96 -40t40 -96t-40 -96t-96 -40zM349 905q-23 0 -38 -16.5t-15 -39.5t15 -39.5t38 -16.5t38 16.5t15 39.5 t-15 39.5t-38 16.5z" />
<glyph unicode="&#xc6;" horiz-adv-x="940" d="M616 123h264v-123h-413v138h-229l-69 -138h-161l325 674h543v-123h-260v-153h232v-122h-232v-153zM467 262v352q-34 -88 -166 -352h166z" />
<glyph unicode="&#xc7;" horiz-adv-x="613" d="M563 497q-75 46 -161.5 46t-141.5 -56.5t-55 -150.5t55 -148.5t145.5 -54.5t157.5 48v-151q-61 -38 -176 -38q-148 0 -247.5 95.5t-99.5 248.5t96.5 250t251.5 97q114 0 175 -38v-148zM448 -125q0 -63 -45.5 -103t-133.5 -40v91q36 0 55.5 17t19.5 46t-26 63h113 q17 -27 17 -74z" />
<glyph unicode="&#xc8;" horiz-adv-x="544" d="M220 123h264v-123h-419v674h415v-123h-260v-153h232v-122h-232v-153zM346 721h-121l-111 177h146z" />
<glyph unicode="&#xc9;" horiz-adv-x="544" d="M220 123h264v-123h-419v674h415v-123h-260v-153h232v-122h-232v-153zM454 898l-111 -177h-121l86 177h146z" />
<glyph unicode="&#xca;" horiz-adv-x="544" d="M220 276v-153h264v-123h-419v674h415v-123h-260v-153h232v-122h-232zM272 817l-79 -96h-139l156 177h124l156 -177h-139z" />
<glyph unicode="&#xcb;" horiz-adv-x="544" d="M220 276v-153h264v-123h-419v674h415v-123h-260v-153h232v-122h-232zM196.5 750.5q-23.5 -23.5 -59 -23.5t-59 23.5t-23.5 58t23.5 58t59 23.5t59 -23.5t23.5 -58t-23.5 -58zM465 750.5q-24 -23.5 -59.5 -23.5t-59 23.5t-23.5 58t23.5 58t59 23.5t59.5 -23.5t24 -58 t-24 -58z" />
<glyph unicode="&#xcc;" horiz-adv-x="304" d="M122 898l86 -177h-121l-111 177h146zM75 0v674h154v-674h-154z" />
<glyph unicode="&#xcd;" horiz-adv-x="304" d="M94 721l86 177h146l-111 -177h-121zM75 0v674h154v-674h-154z" />
<glyph unicode="&#xce;" horiz-adv-x="304" d="M75 0v674h154v-674h-154zM92 898h124l156 -177h-139l-79 96l-79 -96h-139z" />
<glyph unicode="&#xcf;" horiz-adv-x="304" d="M232.5 751.5q-23.5 23.5 -23.5 58t23.5 58t59 23.5t59.5 -23.5t24 -58t-24 -58t-59.5 -23.5t-59 23.5zM-35.5 751.5q-23.5 23.5 -23.5 58t23.5 58t59 23.5t59 -23.5t23.5 -58t-23.5 -58t-59 -23.5t-59 23.5zM75 0v674h154v-674h-154z" />
<glyph unicode="&#xd0;" horiz-adv-x="749" d="M131 674h232q152 0 249 -93.5t97 -232.5q0 -162 -95.5 -255t-252.5 -93h-230v269h-66v124h66v281zM289 126h70q93 0 143.5 58t50.5 156t-51 152.5t-144 54.5h-69v-154h138v-124h-138v-143z" />
<glyph unicode="&#xd1;" horiz-adv-x="697" d="M416 741q-33 0 -69 17.5t-56 17.5t-34 -8.5t-36 -34.5l-65 64q16 34 47.5 58t68 24t77 -17.5t59.5 -17.5q48 0 70 43l74 -61q-42 -85 -136 -85zM65 0v674h169l157 -279q68 -121 97 -205q-10 74 -10 205v279h154v-674h-169l-161 279q-63 107 -90 184l-8 25q15 -90 15 -209 v-279h-154z" />
<glyph unicode="&#xd2;" horiz-adv-x="736" d="M352 898l86 -177h-121l-111 177h146zM205 339q0 -95 44 -150.5t119 -55.5t119 55.5t44 150.5t-44 150.5t-119 55.5t-119 -55.5t-44 -150.5zM129 88q-89 95 -89 250.5t89.5 251t239 95.5t238.5 -95t89 -250.5t-89.5 -251t-239 -95.5t-238.5 95z" />
<glyph unicode="&#xd3;" horiz-adv-x="736" d="M205 339q0 -95 44 -150.5t119 -55.5t119 55.5t44 150.5t-44 150.5t-119 55.5t-119 -55.5t-44 -150.5zM129 88q-89 95 -89 250.5t89.5 251t239 95.5t238.5 -95t89 -250.5t-89.5 -251t-239 -95.5t-238.5 95zM311 721l86 177h146l-111 -177h-121z" />
<glyph unicode="&#xd4;" horiz-adv-x="736" d="M310 898h124l156 -177h-139l-79 96l-79 -96h-139zM129 88q-89 95 -89 250.5t89.5 251t239 95.5t238.5 -95t89 -250.5t-89.5 -251t-239 -95.5t-238.5 95zM205 339q0 -95 44 -150.5t119 -55.5t119 55.5t44 150.5t-44 150.5t-119 55.5t-119 -55.5t-44 -150.5z" />
<glyph unicode="&#xd5;" horiz-adv-x="736" d="M430 740q-33 0 -69 17.5t-56 17.5t-34 -8.5t-36 -34.5l-65 64q16 34 47.5 58t68 24t77 -17.5t59.5 -17.5q48 0 70 43l74 -61q-42 -85 -136 -85zM205 339q0 -95 44 -150.5t119 -55.5t119 55.5t44 150.5t-44 150.5t-119 55.5t-119 -55.5t-44 -150.5zM129 88 q-89 95 -89 250.5t89.5 251t239 95.5t238.5 -95t89 -250.5t-89.5 -251t-239 -95.5t-238.5 95z" />
<glyph unicode="&#xd6;" horiz-adv-x="736" d="M205 339q0 -95 44 -150.5t119 -55.5t119 55.5t44 150.5t-44 150.5t-119 55.5t-119 -55.5t-44 -150.5zM129 88q-89 95 -89 250.5t89.5 251t239 95.5t238.5 -95t89 -250.5t-89.5 -251t-239 -95.5t-238.5 95zM451.5 751.5q-23.5 23.5 -23.5 58t23.5 58t59 23.5t59.5 -23.5 t24 -58t-24 -58t-59.5 -23.5t-59 23.5zM183.5 751.5q-23.5 23.5 -23.5 58t23.5 58t59 23.5t59 -23.5t23.5 -58t-23.5 -58t-59 -23.5t-59 23.5z" />
<glyph unicode="&#xd7;" horiz-adv-x="530" d="M487 209l-92 -92l-130 129l-127 -127l-95 94l128 128l-129 128l92 92l129 -128l127 127l95 -94l-128 -128z" />
<glyph unicode="&#xd8;" horiz-adv-x="714" d="M616 577q78 -92 78 -242.5t-89.5 -246t-238.5 -95.5q-86 0 -156 34l-25 -34h-146l78 106q-79 93 -79 244t89.5 246.5t238.5 95.5q89 0 159 -35l25 34h145zM366 553q-78 0 -124 -58t-46 -156q0 -64 18 -109l227 307q-35 16 -75 16zM366 125q78 0 124 58t46 156 q0 61 -17 106l-225 -305q32 -15 72 -15z" />
<glyph unicode="&#xd9;" horiz-adv-x="668" d="M316 898l86 -177h-121l-111 177h146zM454 260v414h154v-413q0 -132 -74 -201.5t-199 -69.5t-200 69t-75 195v420h154v-419q0 -125 120 -125t120 130z" />
<glyph unicode="&#xda;" horiz-adv-x="668" d="M454 260v414h154v-413q0 -132 -74 -201.5t-199 -69.5t-200 69t-75 195v420h154v-419q0 -125 120 -125t120 130zM287 721l86 177h146l-111 -177h-121z" />
<glyph unicode="&#xdb;" horiz-adv-x="668" d="M270 898h124l156 -177h-139l-79 96l-79 -96h-139zM454 260v414h154v-413q0 -132 -74 -201.5t-199 -69.5t-200 69t-75 195v420h154v-419q0 -125 120 -125t120 130z" />
<glyph unicode="&#xdc;" horiz-adv-x="668" d="M454 260v414h154v-413q0 -132 -74 -201.5t-199 -69.5t-200 69t-75 195v420h154v-419q0 -125 120 -125t120 130zM413.5 750.5q-23.5 23.5 -23.5 58t23.5 58t59 23.5t59.5 -23.5t24 -58t-24 -58t-59.5 -23.5t-59 23.5zM145.5 750.5q-23.5 23.5 -23.5 58t23.5 58t59 23.5 t59 -23.5t23.5 -58t-23.5 -58t-59 -23.5t-59 23.5z" />
<glyph unicode="&#xdd;" horiz-adv-x="643" d="M397 0h-154v247l-230 427h180q101 -242 126 -314q10 45 88 216l44 98h179l-233 -426v-248zM507 898l-111 -177h-121l86 177h146z" />
<glyph unicode="&#xde;" horiz-adv-x="563" d="M219 564h78q113 0 182 -62.5t69 -166.5t-72.5 -164.5t-178.5 -60.5h-78v-110h-154v674h154v-110zM219 232h66q53 0 80 29t27 73.5t-25 75.5t-82 31h-66v-209z" />
<glyph unicode="&#xdf;" horiz-adv-x="598" d="M381 105q27 0 44 14t17 36t-15 40t-36 33t-43 31q-51 38 -51 92q0 38 28.5 84.5t28.5 70.5q0 57 -62 57q-90 0 -90 -93v-470h-142v461q0 109 58 169t160.5 60t163 -50.5t60.5 -120.5q0 -57 -42 -118q-13 -20 -13 -33t20.5 -30t45 -35t45 -56.5t20.5 -87.5 q0 -76 -49.5 -122t-131 -46t-117.5 24v123q51 -33 101 -33z" />
<glyph unicode="&#xe0;" horiz-adv-x="516" d="M74 482q60 34 170.5 34t163.5 -46.5t53 -144.5v-325h-143v62q-32 -65 -126 -65q-74 0 -115.5 42t-41.5 110t53.5 108.5t158.5 40.5h64v35q0 64 -83.5 64t-153.5 -46v131zM311 208h-47q-37 0 -57 -16t-20 -41q0 -51 59 -51q31 0 48 19t17 52v37zM326 554h-121l-111 177 h146z" />
<glyph unicode="&#xe1;" horiz-adv-x="516" d="M74 482q60 34 170.5 34t163.5 -46.5t53 -144.5v-325h-143v62q-32 -65 -126 -65q-74 0 -115.5 42t-41.5 110t53.5 108.5t158.5 40.5h64v35q0 64 -83.5 64t-153.5 -46v131zM311 208h-47q-37 0 -57 -16t-20 -41q0 -51 59 -51q31 0 48 19t17 52v37zM426 731l-111 -177h-121 l86 177h146z" />
<glyph unicode="&#xe2;" horiz-adv-x="516" d="M74 482q60 34 170.5 34t163.5 -46.5t53 -144.5v-325h-143v62q-32 -65 -126 -65q-74 0 -115.5 42t-41.5 110t53.5 108.5t158.5 40.5h64v35q0 64 -83.5 64t-153.5 -46v131zM311 208h-47q-37 0 -57 -16t-20 -41q0 -51 59 -51q31 0 48 19t17 52v37zM256 650l-79 -96h-139 l156 177h124l156 -177h-139z" />
<glyph unicode="&#xe3;" horiz-adv-x="516" d="M74 482q60 34 170.5 34t163.5 -46.5t53 -144.5v-325h-143v62q-32 -65 -126 -65q-74 0 -115.5 42t-41.5 110t53.5 108.5t158.5 40.5h64v35q0 64 -83.5 64t-153.5 -46v131zM311 208h-47q-37 0 -57 -16t-20 -41q0 -51 59 -51q31 0 48 19t17 52v37zM318 574q-33 0 -69 17.5 t-56 17.5t-34 -8.5t-36 -34.5l-65 64q16 34 47.5 58t68 24t77 -17.5t59.5 -17.5q48 0 70 43l74 -61q-42 -85 -136 -85z" />
<glyph unicode="&#xe4;" horiz-adv-x="516" d="M74 482q60 34 170.5 34t163.5 -46.5t53 -144.5v-325h-143v62q-32 -65 -126 -65q-74 0 -115.5 42t-41.5 110t53.5 108.5t158.5 40.5h64v35q0 64 -83.5 64t-153.5 -46v131zM311 208h-47q-37 0 -57 -16t-20 -41q0 -51 59 -51q31 0 48 19t17 52v37zM189.5 584.5 q-23.5 -23.5 -59 -23.5t-59 23.5t-23.5 58t23.5 58t59 23.5t59 -23.5t23.5 -58t-23.5 -58zM458 584.5q-24 -23.5 -59.5 -23.5t-59 23.5t-23.5 58t23.5 58t59 23.5t59.5 -23.5t24 -58t-24 -58z" />
<glyph unicode="&#xe5;" horiz-adv-x="516" d="M74 482q60 34 170.5 34t163.5 -46.5t53 -144.5v-325h-143v62q-32 -65 -126 -65q-74 0 -115.5 42t-41.5 110t53.5 108.5t158.5 40.5h64v35q0 64 -83.5 64t-153.5 -46v131zM311 208h-47q-37 0 -57 -16t-20 -41q0 -51 59 -51q31 0 48 19t17 52v37zM260 543q-56 0 -96 40 t-40 96t40 96t96 40t96 -40t40 -96t-40 -96t-96 -40zM260 738q-23 0 -38 -16.5t-15 -39.5t15 -39.5t38 -16.5t38 16.5t15 39.5t-15 39.5t-38 16.5z" />
<glyph unicode="&#xe6;" horiz-adv-x="808" d="M603 108q77 0 134 43v-122q-53 -34 -152 -34q-57 0 -111 23t-82 70q-16 -38 -59 -65t-121.5 -27t-125 40t-46.5 110.5t53.5 111t158.5 40.5h64v35q0 64 -83.5 64t-153.5 -46v131q60 34 163 34q54 0 93.5 -20t55.5 -54q23 33 65 51.5t92 18.5q102 0 161 -59.5t59 -177.5 q0 -23 -8 -79h-299q16 -42 53 -65t89 -23zM632 300v11q-7 90 -78 90q-34 0 -61.5 -26t-36.5 -75h176zM316 171v37h-47q-37 0 -57 -16t-20 -41q0 -51 59 -51q31 0 48 19t17 52z" />
<glyph unicode="&#xe7;" horiz-adv-x="469" d="M369 -125q0 -63 -45.5 -103t-133.5 -40v91q36 0 55.5 17t19.5 46t-26 63h113q17 -27 17 -74zM223 148q36 -37 97 -37t119 35v-122q-59 -32 -142 -32q-114 0 -188 72.5t-74 187.5q2 114 74 188.5t197 74.5q77 0 133 -29v-125q-53 33 -116 33t-101 -36.5t-39 -105.5 q4 -67 40 -104z" />
<glyph unicode="&#xe8;" horiz-adv-x="533" d="M458 29q-52 -34 -168 -34t-185.5 72.5t-69.5 190t67.5 186t168 68.5t159.5 -59.5t59 -177.5q0 -23 -8 -79h-298q15 -42 52 -65t89 -23q77 0 134 43v-122zM353 300v12q-7 89 -78 89q-35 0 -62 -25.5t-36 -75.5h176zM336 554h-121l-111 177h146z" />
<glyph unicode="&#xe9;" horiz-adv-x="533" d="M458 29q-52 -34 -168 -34t-185.5 72.5t-69.5 190t67.5 186t168 68.5t159.5 -59.5t59 -177.5q0 -23 -8 -79h-298q15 -42 52 -65t89 -23q77 0 134 43v-122zM353 300v12q-7 89 -78 89q-35 0 -62 -25.5t-36 -75.5h176zM457 730l-111 -177h-121l86 177h146z" />
<glyph unicode="&#xea;" horiz-adv-x="533" d="M458 29q-52 -34 -168 -34t-185.5 72.5t-69.5 190t67.5 186t168 68.5t159.5 -59.5t59 -177.5q0 -23 -8 -79h-298q15 -42 52 -65t89 -23q77 0 134 43v-122zM353 300v12q-7 89 -78 89q-35 0 -62 -25.5t-36 -75.5h176zM269 650l-79 -96h-139l156 177h124l156 -177h-139z" />
<glyph unicode="&#xeb;" horiz-adv-x="533" d="M458 29q-52 -34 -168 -34t-185.5 72.5t-69.5 190t67.5 186t168 68.5t159.5 -59.5t59 -177.5q0 -23 -8 -79h-298q15 -42 52 -65t89 -23q77 0 134 43v-122zM353 300v12q-7 89 -78 89q-35 0 -62 -25.5t-36 -75.5h176zM208.5 584.5q-23.5 -23.5 -59 -23.5t-59 23.5t-23.5 58 t23.5 58t59 23.5t59 -23.5t23.5 -58t-23.5 -58zM477 584.5q-24 -23.5 -59.5 -23.5t-59 23.5t-23.5 58t23.5 58t59 23.5t59.5 -23.5t24 -58t-24 -58z" />
<glyph unicode="&#xec;" horiz-adv-x="276" d="M103 731l86 -177h-121l-111 177h146zM65 0v507h146v-507h-146z" />
<glyph unicode="&#xed;" horiz-adv-x="276" d="M85 554l86 177h146l-111 -177h-121zM65 0v507h146v-507h-146z" />
<glyph unicode="&#xee;" horiz-adv-x="276" d="M65 0v507h146v-507h-146zM77 731h124l156 -177h-139l-79 96l-79 -96h-139z" />
<glyph unicode="&#xef;" horiz-adv-x="276" d="M213.5 584.5q-23.5 23.5 -23.5 58t23.5 58t59 23.5t59.5 -23.5t24 -58t-24 -58t-59.5 -23.5t-59 23.5zM-54.5 584.5q-23.5 23.5 -23.5 58t23.5 58t59 23.5t59 -23.5t23.5 -58t-23.5 -58t-59 -23.5t-59 23.5zM65 0v507h146v-507h-146z" />
<glyph unicode="&#xf0;" horiz-adv-x="557" d="M510 289q0 -135 -62 -217t-175.5 -82t-175.5 62t-62 151.5t53.5 144t136.5 54.5t137 -51q-13 86 -62 161l-143 -70v81l97 47q-50 54 -126 104h184q28 -20 57 -47l113 55v-81l-65 -32q45 -63 69 -137.5t24 -142.5zM267 120q38 0 63 25t33 90q-42 44 -97 44 q-39 0 -60.5 -22.5t-21.5 -59t22.5 -57t60.5 -20.5z" />
<glyph unicode="&#xf1;" horiz-adv-x="580" d="M206 507v-86q19 42 58.5 66.5t94.5 24.5q78 0 122 -46.5t44 -136.5v-329h-146v302q0 45 -21 68.5t-60 23.5t-65.5 -31.5t-26.5 -94.5v-268h-146v507h146zM354 574q-33 0 -69 17.5t-56 17.5t-34 -8.5t-36 -34.5l-65 64q16 34 47.5 58t68 24t77 -17.5t59.5 -17.5 q48 0 70 43l74 -61q-42 -85 -136 -85z" />
<glyph unicode="&#xf2;" horiz-adv-x="567" d="M268 730l86 -177h-121l-111 177h146zM283 400q-48 0 -72 -41t-24 -106t24.5 -106.5t73 -41.5t72 40.5t23.5 105.5q0 149 -97 149zM466.5 66.5q-65.5 -74.5 -183.5 -74.5t-183 71.5t-65 186t68 190t183.5 75.5t180.5 -73t65 -187t-65.5 -188.5z" />
<glyph unicode="&#xf3;" horiz-adv-x="567" d="M283 400q-48 0 -72 -41t-24 -106t24.5 -106.5t73 -41.5t72 40.5t23.5 105.5q0 149 -97 149zM466.5 66.5q-65.5 -74.5 -183.5 -74.5t-183 71.5t-65 186t68 190t183.5 75.5t180.5 -73t65 -187t-65.5 -188.5zM235 553l86 177h146l-111 -177h-121z" />
<glyph unicode="&#xf4;" horiz-adv-x="567" d="M225 730h124l156 -177h-139l-79 96l-79 -96h-139zM466.5 66.5q-65.5 -74.5 -183.5 -74.5t-183 71.5t-65 186t68 190t183.5 75.5t180.5 -73t65 -187t-65.5 -188.5zM283 400q-48 0 -72 -41t-24 -106t24.5 -106.5t73 -41.5t72 40.5t23.5 105.5q0 149 -97 149z" />
<glyph unicode="&#xf5;" horiz-adv-x="567" d="M349 574q-33 0 -69 17.5t-56 17.5t-34 -8.5t-36 -34.5l-65 64q16 34 47.5 58t68 24t77 -17.5t59.5 -17.5q49 0 70 43l74 -61q-43 -85 -136 -85zM283 400q-48 0 -72 -41t-24 -106t24.5 -106.5t73 -41.5t72 40.5t23.5 105.5q0 149 -97 149zM466.5 66.5 q-65.5 -74.5 -183.5 -74.5t-183 71.5t-65 186t68 190t183.5 75.5t180.5 -73t65 -187t-65.5 -188.5z" />
<glyph unicode="&#xf6;" horiz-adv-x="567" d="M283 400q-48 0 -72 -41t-24 -106t24.5 -106.5t73 -41.5t72 40.5t23.5 105.5q0 149 -97 149zM466.5 66.5q-65.5 -74.5 -183.5 -74.5t-183 71.5t-65 186t68 190t183.5 75.5t180.5 -73t65 -187t-65.5 -188.5zM369.5 585.5q-23.5 23.5 -23.5 58t23.5 58t59 23.5t59.5 -23.5 t24 -58t-24 -58t-59.5 -23.5t-59 23.5zM101.5 585.5q-23.5 23.5 -23.5 58t23.5 58t59 23.5t59 -23.5t23.5 -58t-23.5 -58t-59 -23.5t-59 23.5z" />
<glyph unicode="&#xf7;" horiz-adv-x="589" d="M214 164q0 31 22.5 53.5t53.5 22.5t53.5 -22.5t22.5 -53.5t-22.5 -53.5t-53.5 -22.5t-53.5 22.5t-22.5 53.5zM45 275v130h499v-130h-499zM214 516q0 31 22.5 53.5t53.5 22.5t53.5 -22.5t22.5 -53.5t-22.5 -53.5t-53.5 -22.5t-53.5 22.5t-22.5 53.5z" />
<glyph unicode="&#xf8;" horiz-adv-x="562" d="M474 434q58 -68 58 -180.5t-65.5 -187t-182.5 -74.5q-63 0 -112 22l-16 -22h-121l57 80q-57 69 -57 180.5t68 187t181 75.5q59 0 111 -21l15 21h122zM283 416q-56 0 -85 -45.5t-29 -117.5q0 -36 7 -64l156 217q-23 10 -49 10zM285 89q57 0 85 45t28 117q0 39 -7 68 l-156 -218q21 -12 50 -12z" />
<glyph unicode="&#xf9;" horiz-adv-x="580" d="M374 507h146v-507h-146v81q-40 -85 -154 -85q-78 0 -121.5 43.5t-43.5 128.5v339h146v-306q0 -89 78 -89q95 0 95 127v268zM351 553h-121l-111 177h146z" />
<glyph unicode="&#xfa;" horiz-adv-x="580" d="M374 507h146v-507h-146v81q-40 -85 -154 -85q-78 0 -121.5 43.5t-43.5 128.5v339h146v-306q0 -89 78 -89q95 0 95 127v268zM470 730l-111 -177h-121l86 177h146z" />
<glyph unicode="&#xfb;" horiz-adv-x="580" d="M374 507h146v-507h-146v81q-40 -85 -154 -85q-78 0 -121.5 43.5t-43.5 128.5v339h146v-306q0 -89 78 -89q95 0 95 127v268zM288 650l-79 -96h-139l156 177h124l156 -177h-139z" />
<glyph unicode="&#xfc;" horiz-adv-x="580" d="M374 507h146v-507h-146v81q-40 -85 -154 -85q-78 0 -121.5 43.5t-43.5 128.5v339h146v-306q0 -89 78 -89q95 0 95 127v268zM211.5 584.5q-23.5 -23.5 -59 -23.5t-59 23.5t-23.5 58t23.5 58t59 23.5t59 -23.5t23.5 -58t-23.5 -58zM480 584.5q-24 -23.5 -59.5 -23.5 t-59 23.5t-23.5 58t23.5 58t59 23.5t59.5 -23.5t24 -58t-24 -58z" />
<glyph unicode="&#xfd;" horiz-adv-x="532" d="M103 -198q-31 0 -56 5v116q16 -4 34 -4q83 0 120 89l-196 499h159q97 -278 109 -335q13 49 104 335h150l-183 -492q-79 -213 -241 -213zM224 554l86 177h146l-111 -177h-121z" />
<glyph unicode="&#xfe;" horiz-adv-x="611" d="M206 707v-278q53 84 152 84t158.5 -69.5t59.5 -185.5t-57.5 -190t-160 -74t-152.5 81v-262h-146v894h146zM238 155q32 -39 81 -39t79 36.5t30 102.5t-30.5 101.5t-77 35.5t-80.5 -35t-34 -99t32 -103z" />
<glyph unicode="&#xff;" horiz-adv-x="532" d="M103 -198q-31 0 -56 5v116q16 -4 34 -4q83 0 120 89l-196 499h159q97 -278 109 -335q13 49 104 335h150l-183 -492q-79 -213 -241 -213zM82.5 584.5q-23.5 23.5 -23.5 58t23.5 58t59 23.5t59 -23.5t23.5 -58t-23.5 -58t-59 -23.5t-59 23.5zM350.5 584.5 q-23.5 23.5 -23.5 58t23.5 58t59 23.5t59.5 -23.5t24 -58t-24 -58t-59.5 -23.5t-59 23.5z" />
<glyph unicode="&#x100;" horiz-adv-x="690" d="M502 0l-41 138h-236l-41 -138h-161l225 674h194l225 -674h-165zM262 262h162q-67 229 -81 300q-6 -44 -81 -300zM527 860v-99h-356v99h356z" />
<glyph unicode="&#x101;" horiz-adv-x="516" d="M74 482q60 34 170.5 34t163.5 -46.5t53 -144.5v-325h-143v62q-32 -65 -126 -65q-74 0 -115.5 42t-41.5 110t53.5 108.5t158.5 40.5h64v35q0 64 -83.5 64t-153.5 -46v131zM311 208h-47q-37 0 -57 -16t-20 -41q0 -51 59 -51q31 0 48 19t17 52v37zM436 692v-99h-356v99h356z " />
<glyph unicode="&#x102;" horiz-adv-x="690" d="M502 0l-41 138h-236l-41 -138h-161l225 674h194l225 -674h-165zM262 262h162q-67 229 -81 300q-6 -44 -81 -300zM428 898h112q0 -93 -54.5 -137t-143.5 -44t-143.5 44t-54.5 137h112q0 -42 23.5 -65.5t62.5 -23.5t62.5 23.5t23.5 65.5z" />
<glyph unicode="&#x103;" horiz-adv-x="516" d="M74 482q60 34 170.5 34t163.5 -46.5t53 -144.5v-325h-143v62q-32 -65 -126 -65q-74 0 -115.5 42t-41.5 110t53.5 108.5t158.5 40.5h64v35q0 64 -83.5 64t-153.5 -46v131zM311 208h-47q-37 0 -57 -16t-20 -41q0 -51 59 -51q31 0 48 19t17 52v37zM343 730h112 q0 -93 -54.5 -137t-143.5 -44t-143.5 44t-54.5 137h112q0 -42 23.5 -65.5t62.5 -23.5t62.5 23.5t23.5 65.5z" />
<glyph unicode="&#x104;" horiz-adv-x="680" d="M544 -130q0 -34 43.5 -34t86.5 30v-101q-48 -25 -113.5 -25t-99 33t-33.5 84q0 79 69 143l-41 138h-236l-41 -138h-161l225 674h194l225 -674q-118 -73 -118 -130zM257 262h162q-67 229 -81 300q-6 -44 -81 -300z" />
<glyph unicode="&#x105;" horiz-adv-x="511" d="M461 325v-325q-118 -73 -118 -130q0 -34 43.5 -34t86.5 30v-101q-48 -25 -113.5 -25t-99 33t-33.5 84q0 85 91 153v52q-32 -65 -126 -65q-74 0 -115.5 42t-41.5 110t53.5 108.5t158.5 40.5h64v35q0 64 -83.5 64t-153.5 -46v131q60 34 170.5 34t163.5 -46.5t53 -144.5z M311 208h-47q-37 0 -57 -16t-20 -41q0 -51 59 -51q31 0 48 19t17 52v37z" />
<glyph unicode="&#x106;" horiz-adv-x="613" d="M304 721l86 177h146l-111 -177h-121zM563 497q-75 46 -161.5 46t-141.5 -56.5t-55 -150.5t55 -148.5t145.5 -54.5t157.5 48v-151q-61 -38 -176 -38q-148 0 -247.5 95.5t-99.5 248.5t96.5 250t251.5 97q114 0 175 -38v-148z" />
<glyph unicode="&#x107;" horiz-adv-x="469" d="M223 148q36 -37 97 -37t119 35v-122q-59 -32 -142 -32q-114 0 -188 72.5t-74 187.5q2 114 74 188.5t197 74.5q77 0 133 -29v-125q-53 33 -116 33t-101 -36.5t-39 -105.5q4 -67 40 -104zM237 553l86 177h146l-111 -177h-121z" />
<glyph unicode="&#x108;" horiz-adv-x="613" d="M286 898h124l156 -177h-139l-79 96l-79 -96h-139zM563 497q-75 46 -161.5 46t-141.5 -56.5t-55 -150.5t55 -148.5t145.5 -54.5t157.5 48v-151q-61 -38 -176 -38q-148 0 -247.5 95.5t-99.5 248.5t96.5 250t251.5 97q114 0 175 -38v-148z" />
<glyph unicode="&#x109;" horiz-adv-x="469" d="M208 731h124l156 -177h-139l-79 96l-79 -96h-139zM439 361q-53 33 -116 33t-101 -36.5t-39 -105.5q4 -67 40 -104t97 -37t119 35v-122q-59 -32 -142 -32q-114 0 -188 72.5t-74 187.5q2 114 74 188.5t197 74.5q77 0 133 -29v-125z" />
<glyph unicode="&#x10a;" horiz-adv-x="613" d="M563 497q-75 46 -161.5 46t-141.5 -56.5t-55 -150.5t55 -148.5t145.5 -54.5t157.5 48v-151q-61 -38 -176 -38q-148 0 -247.5 95.5t-99.5 248.5t96.5 250t251.5 97q114 0 175 -38v-148zM315.5 752.5q-23.5 23.5 -23.5 58t23.5 58t59 23.5t59 -23.5t23.5 -58t-23.5 -58 t-59 -23.5t-59 23.5z" />
<glyph unicode="&#x10b;" horiz-adv-x="469" d="M228.5 584.5q-23.5 23.5 -23.5 58t23.5 58t59 23.5t59 -23.5t23.5 -58t-23.5 -58t-59 -23.5t-59 23.5zM223 148q36 -37 97 -37t119 35v-122q-59 -32 -142 -32q-114 0 -188 72.5t-74 187.5q2 114 74 188.5t197 74.5q77 0 133 -29v-125q-53 33 -116 33t-101 -36.5 t-39 -105.5q4 -67 40 -104z" />
<glyph unicode="&#x10c;" horiz-adv-x="613" d="M422 721h-124l-156 177h139l79 -96l79 96h139zM563 497q-75 46 -161.5 46t-141.5 -56.5t-55 -150.5t55 -148.5t145.5 -54.5t157.5 48v-151q-61 -38 -176 -38q-148 0 -247.5 95.5t-99.5 248.5t96.5 250t251.5 97q114 0 175 -38v-148z" />
<glyph unicode="&#x10d;" horiz-adv-x="469" d="M337 553h-124l-156 177h139l79 -96l79 96h139zM439 361q-53 33 -116 33t-101 -36.5t-39 -105.5q4 -67 40 -104t97 -37t119 35v-122q-59 -32 -142 -32q-114 0 -188 72.5t-74 187.5q2 114 74 188.5t197 74.5q77 0 133 -29v-125z" />
<glyph unicode="&#x10e;" horiz-adv-x="683" d="M65 674h232q152 0 249 -93.5t97 -232.5q0 -162 -95.5 -255t-252.5 -93h-230v674zM223 126h70q93 0 143.5 58t50.5 156t-51 152.5t-144 54.5h-69v-421zM382 721h-124l-156 177h139l79 -96l79 96h139z" />
<glyph unicode="&#x10f;" horiz-adv-x="745" d="M670 708h151l-116 -211h-106zM405 707h146v-707h-146v79q-51 -85 -151 -85t-159.5 77t-59.5 190.5t62 182.5t159 69t149 -84v278zM215 153.5q32 -37.5 80 -37.5t79 39t31 103t-33.5 99t-79.5 35t-77.5 -37t-31.5 -100.5t32 -101z" />
<glyph unicode="&#x110;" horiz-adv-x="749" d="M131 674h232q152 0 249 -93.5t97 -232.5q0 -162 -95.5 -255t-252.5 -93h-230v269h-66v124h66v281zM289 126h70q93 0 143.5 58t50.5 156t-51 152.5t-144 54.5h-69v-154h138v-124h-138v-143z" />
<glyph unicode="&#x111;" horiz-adv-x="611" d="M608 646v-82h-57v-564h-146v79q-51 -85 -151 -85t-159.5 77t-59.5 190.5t62 182.5t159 69t149 -84v135h-151v82h151v61h146v-61h57zM215 153.5q32 -37.5 80 -37.5t79 39t31 103t-33.5 99t-79.5 35t-77.5 -37t-31.5 -100.5t32 -101z" />
<glyph unicode="&#x112;" horiz-adv-x="544" d="M220 123h264v-123h-419v674h415v-123h-260v-153h232v-122h-232v-153zM450 863v-99h-356v99h356z" />
<glyph unicode="&#x113;" horiz-adv-x="533" d="M458 29q-52 -34 -168 -34t-185.5 72.5t-69.5 190t67.5 186t168 68.5t159.5 -59.5t59 -177.5q0 -23 -8 -79h-298q15 -42 52 -65t89 -23q77 0 134 43v-122zM353 300v12q-7 89 -78 89q-35 0 -62 -25.5t-36 -75.5h176zM448 692v-99h-356v99h356z" />
<glyph unicode="&#x114;" horiz-adv-x="544" d="M220 123h264v-123h-419v674h415v-123h-260v-153h232v-122h-232v-153zM370 898h112q0 -93 -54.5 -137t-143.5 -44t-143.5 44t-54.5 137h112q0 -42 23.5 -65.5t62.5 -23.5t62.5 23.5t23.5 65.5z" />
<glyph unicode="&#x115;" horiz-adv-x="533" d="M458 29q-52 -34 -168 -34t-185.5 72.5t-69.5 190t67.5 186t168 68.5t159.5 -59.5t59 -177.5q0 -23 -8 -79h-298q15 -42 52 -65t89 -23q77 0 134 43v-122zM353 300v12q-7 89 -78 89q-35 0 -62 -25.5t-36 -75.5h176zM356 731h112q0 -93 -54.5 -137t-143.5 -44t-143.5 44 t-54.5 137h112q0 -42 23.5 -65.5t62.5 -23.5t62.5 23.5t23.5 65.5z" />
<glyph unicode="&#x116;" horiz-adv-x="544" d="M220 123h264v-123h-419v674h415v-123h-260v-153h232v-122h-232v-153zM340.5 751.5q-23.5 -23.5 -59 -23.5t-59 23.5t-23.5 58t23.5 58t59 23.5t59 -23.5t23.5 -58t-23.5 -58z" />
<glyph unicode="&#x117;" horiz-adv-x="533" d="M458 29q-52 -34 -168 -34t-185.5 72.5t-69.5 190t67.5 186t168 68.5t159.5 -59.5t59 -177.5q0 -23 -8 -79h-298q15 -42 52 -65t89 -23q77 0 134 43v-122zM353 300v12q-7 89 -78 89q-35 0 -62 -25.5t-36 -75.5h176zM338.5 584.5q-23.5 -23.5 -59 -23.5t-59 23.5t-23.5 58 t23.5 58t59 23.5t59 -23.5t23.5 -58t-23.5 -58z" />
<glyph unicode="&#x118;" horiz-adv-x="544" d="M484 123v-123q-118 -73 -118 -130q0 -34 43.5 -34t86.5 30v-101q-48 -25 -113.5 -25t-99 33t-33.5 84q0 79 79 143h-264v674h415v-123h-260v-153h232v-122h-232v-153h264z" />
<glyph unicode="&#x119;" horiz-adv-x="533" d="M457 -213q-48 -25 -113.5 -25t-99 33t-33.5 90t52 112q-109 10 -168.5 81t-59.5 184t67.5 181.5t168 68.5t159.5 -59.5t59 -177.5q0 -23 -8 -79h-298q15 -42 52 -65t89 -23q77 0 134 43v-122q-7 -5 -15 -8q-116 -73 -116 -129q0 -34 43.5 -34t86.5 30v-101zM353 300v12 q-7 89 -78 89q-35 0 -62 -25.5t-36 -75.5h176z" />
<glyph unicode="&#x11a;" horiz-adv-x="544" d="M220 276v-153h264v-123h-419v674h415v-123h-260v-153h232v-122h-232zM341 721h-124l-156 177h139l79 -96l79 96h139z" />
<glyph unicode="&#x11b;" horiz-adv-x="533" d="M458 29q-52 -34 -168 -34t-185.5 72.5t-69.5 190t67.5 186t168 68.5t159.5 -59.5t59 -177.5q0 -23 -8 -79h-298q15 -42 52 -65t89 -23q77 0 134 43v-122zM353 300v12q-7 89 -78 89q-35 0 -62 -25.5t-36 -75.5h176zM334 553h-124l-156 177h139l79 -96l79 96h139z" />
<glyph unicode="&#x11c;" horiz-adv-x="706" d="M646 402v-340q-96 -70 -250 -70t-255 93t-101 252t105.5 254t267.5 95q114 0 197 -42v-154q-96 55 -194 55t-154 -56.5t-56 -151t55 -150.5t150 -56q43 0 85 13v127h-109v131h259zM385 817l-79 -96h-139l156 177h124l156 -177h-139z" />
<glyph unicode="&#x11d;" horiz-adv-x="585" d="M385 507h145v-458q0 -122 -73 -183.5t-181.5 -61.5t-188.5 38v149q70 -56 172 -56q66 0 96 28t30 88v34q-44 -68 -134 -68t-150.5 62t-60.5 177t58.5 185.5t151 70.5t135.5 -72v67zM216 166q24 -33 70 -33t72.5 35.5t26.5 85.5q0 136 -99 136q-44 0 -69 -34t-25 -95.5 t24 -94.5zM309 650l-79 -96h-139l156 177h124l156 -177h-139z" />
<glyph unicode="&#x11e;" horiz-adv-x="706" d="M646 402v-340q-96 -70 -250 -70t-255 93t-101 252t105.5 254t267.5 95q114 0 197 -42v-154q-96 55 -194 55t-154 -56.5t-56 -151t55 -150.5t150 -56q43 0 85 13v127h-109v131h259zM464 898h112q0 -93 -54.5 -137t-143.5 -44t-143.5 44t-54.5 137h112q0 -42 23.5 -65.5 t62.5 -23.5t62.5 23.5t23.5 65.5z" />
<glyph unicode="&#x11f;" horiz-adv-x="585" d="M385 507h145v-458q0 -122 -73 -183.5t-181.5 -61.5t-188.5 38v149q70 -56 172 -56q66 0 96 28t30 88v34q-44 -68 -134 -68t-150.5 62t-60.5 177t58.5 185.5t151 70.5t135.5 -72v67zM216 166q24 -33 70 -33t72.5 35.5t26.5 85.5q0 136 -99 136q-44 0 -69 -34t-25 -95.5 t24 -94.5zM397 731h112q0 -93 -54.5 -137t-143.5 -44t-143.5 44t-54.5 137h112q0 -42 23.5 -65.5t62.5 -23.5t62.5 23.5t23.5 65.5z" />
<glyph unicode="&#x120;" horiz-adv-x="706" d="M646 402v-340q-96 -70 -250 -70t-255 93t-101 252t105.5 254t267.5 95q114 0 197 -42v-154q-96 55 -194 55t-154 -56.5t-56 -151t55 -150.5t150 -56q43 0 85 13v127h-109v131h259zM444.5 751.5q-23.5 -23.5 -59 -23.5t-59 23.5t-23.5 58t23.5 58t59 23.5t59 -23.5 t23.5 -58t-23.5 -58z" />
<glyph unicode="&#x121;" horiz-adv-x="585" d="M385 507h145v-458q0 -122 -73 -183.5t-181.5 -61.5t-188.5 38v149q70 -56 172 -56q66 0 96 28t30 88v34q-44 -68 -134 -68t-150.5 62t-60.5 177t58.5 185.5t151 70.5t135.5 -72v67zM216 166q24 -33 70 -33t72.5 35.5t26.5 85.5q0 136 -99 136q-44 0 -69 -34t-25 -95.5 t24 -94.5zM379.5 584.5q-23.5 -23.5 -59 -23.5t-59 23.5t-23.5 58t23.5 58t59 23.5t59 -23.5t23.5 -58t-23.5 -58z" />
<glyph unicode="&#x122;" horiz-adv-x="706" d="M646 402v-340q-96 -70 -250 -70t-255 93t-101 252t105.5 254t267.5 95q114 0 197 -42v-154q-96 55 -194 55t-154 -56.5t-56 -151t55 -150.5t150 -56q43 0 85 13v127h-109v131h259zM229 -262l71 211h151l-116 -211h-106z" />
<glyph unicode="&#x123;" horiz-adv-x="585" d="M385 507h145v-458q0 -122 -73 -183.5t-181.5 -61.5t-188.5 38v149q70 -56 172 -56q66 0 96 28t30 88v34q-44 -68 -134 -68t-150.5 62t-60.5 177t58.5 185.5t151 70.5t135.5 -72v67zM216 166q24 -33 70 -33t72.5 35.5t26.5 85.5q0 136 -99 136q-44 0 -69 -34t-25 -95.5 t24 -94.5zM471 765l-71 -211h-151l116 211h106z" />
<glyph unicode="&#x124;" horiz-adv-x="686" d="M466 674h155v-674h-155v269h-247v-269h-154v674h154v-274h247v274zM341 817l-79 -96h-139l156 177h124l156 -177h-139z" />
<glyph unicode="&#x125;" horiz-adv-x="580" d="M206 707v-286q39 91 152 91q74 0 120.5 -47t46.5 -142v-323h-146v300q0 44 -22 69t-57 25q-29 0 -58 -20q-36 -26 -36 -106v-268h-146v707h146zM214 754l-79 96l-79 -96h-139l156 177h124l156 -177h-139z" />
<glyph unicode="&#x126;" horiz-adv-x="794" d="M749 577v-82h-74v-495h-155v269h-247v-269h-154v495h-74v82h74v97h154v-97h247v97h155v-97h74zM520 400v95h-247v-95h247z" />
<glyph unicode="&#x127;" horiz-adv-x="580" d="M206 564v-143q39 91 152 91q74 0 120.5 -47t46.5 -142v-323h-146v300q0 44 -22 69t-57 25q-29 0 -58 -20q-36 -26 -36 -106v-268h-146v564h-57v82h57v61h146v-61h151v-82h-151z" />
<glyph unicode="&#x128;" horiz-adv-x="304" d="M208 741q-33 0 -69 17.5t-56 17.5t-34 -8.5t-36 -34.5l-65 64q16 34 47.5 58t68 24t77 -17.5t59.5 -17.5q48 0 70 43l74 -61q-42 -85 -136 -85zM75 0v674h154v-674h-154z" />
<glyph unicode="&#x129;" horiz-adv-x="276" d="M199 573q-33 0 -69 17.5t-56 17.5t-34 -8.5t-36 -34.5l-65 64q16 34 47.5 58t68 24t77 -17.5t59.5 -17.5q49 0 70 43l74 -61q-43 -85 -136 -85zM65 0v507h146v-507h-146z" />
<glyph unicode="&#x12a;" horiz-adv-x="304" d="M330 760h-356v99h356v-99zM75 0v674h154v-674h-154z" />
<glyph unicode="&#x12b;" horiz-adv-x="276" d="M316 593h-356v99h356v-99zM65 0v507h146v-507h-146z" />
<glyph unicode="&#x12c;" horiz-adv-x="304" d="M75 0v674h154v-674h-154zM-44 898h112q0 -42 23.5 -65.5t62.5 -23.5t62.5 23.5t23.5 65.5h112q0 -93 -54.5 -137t-143.5 -44t-143.5 44t-54.5 137z" />
<glyph unicode="&#x12d;" horiz-adv-x="276" d="M65 0v507h146v-507h-146zM-60 730h112q0 -42 23.5 -65.5t62.5 -23.5t62.5 23.5t23.5 65.5h112q0 -93 -54.5 -137t-143.5 -44t-143.5 44t-54.5 137z" />
<glyph unicode="&#x12e;" horiz-adv-x="304" d="M229 674v-674q-118 -73 -118 -130q0 -34 43.5 -34t86.5 30v-101q-48 -25 -113.5 -25t-99 33t-33.5 84q0 79 80 144v673h154z" />
<glyph unicode="&#x12f;" horiz-adv-x="276" d="M211 507v-507q-118 -73 -118 -130q0 -34 43.5 -34t86.5 30v-101q-48 -25 -113.5 -25t-99 33t-33.5 84q0 81 88 150v500h146zM138 569q-35 0 -60 25t-25 60t25 60t60 25t60 -25t25 -60t-25 -60t-60 -25z" />
<glyph unicode="&#x130;" horiz-adv-x="304" d="M94.5 751.5q-23.5 23.5 -23.5 58t23.5 58t59 23.5t59 -23.5t23.5 -58t-23.5 -58t-59 -23.5t-59 23.5zM75 0v674h154v-674h-154z" />
<glyph unicode="&#x131;" horiz-adv-x="276" d="M65 0v507h146v-507h-146z" />
<glyph unicode="&#x132;" horiz-adv-x="672" d="M387 132q71 0 71 76v465h154v-469q0 -97 -51.5 -151t-143.5 -54q-69 0 -107 20v136q37 -23 77 -23zM75 0v674h154v-674h-154z" />
<glyph unicode="&#x133;" horiz-adv-x="534" d="M316 654q0 35 25 60t60 25t60 -25t25 -60t-25 -60t-60 -25t-60 25t-25 60zM277 -86q52 0 52 67v526h145v-528q0 -80 -45 -128.5t-130 -48.5q-35 0 -79 16v111q33 -15 57 -15zM53 654q0 35 25 60t60 25t60 -25t25 -60t-25 -60t-60 -25t-60 25t-25 60zM65 0v507h146v-507 h-146z" />
<glyph unicode="&#x134;" horiz-adv-x="392" d="M195 898h124l156 -177h-139l-79 96l-79 -96h-139zM107 132q71 0 71 76v465h154v-469q0 -97 -51.5 -151t-143.5 -54q-69 0 -107 20v136q37 -23 77 -23z" />
<glyph unicode="&#x135;" horiz-adv-x="274" d="M17 -86q52 0 52 67v526h145v-528q0 -80 -45 -128.5t-130 -48.5q-35 0 -79 16v111q33 -15 57 -15zM80 730h124l156 -177h-139l-79 96l-79 -96h-139z" />
<glyph unicode="&#x136;" horiz-adv-x="662" d="M406 337l239 -337h-193l-226 335l218 339h183zM189 -262l71 211h151l-116 -211h-106zM219 674v-674h-154v674h154z" />
<glyph unicode="&#x137;" horiz-adv-x="548" d="M148 -262l71 211h151l-116 -211h-106zM206 0h-146v690h146v-410l160 227h168l-176 -243l179 -264h-169l-162 249v-249z" />
<glyph unicode="&#x138;" horiz-adv-x="548" d="M206 0h-146v507h146v-227l160 227h168l-176 -243l179 -264h-169l-162 249v-249z" />
<glyph unicode="&#x139;" horiz-adv-x="488" d="M219 674v-539h249v-135h-403v674h154zM488 898l-111 -177h-121l86 177h146z" />
<glyph unicode="&#x13a;" horiz-adv-x="276" d="M65 0v707h146v-707h-146zM75 754l86 177h146l-111 -177h-121z" />
<glyph unicode="&#x13b;" horiz-adv-x="488" d="M219 135h249v-135h-403v674h154v-539zM139 -262l71 211h151l-116 -211h-106z" />
<glyph unicode="&#x13c;" horiz-adv-x="276" d="M-11 -262l71 211h151l-116 -211h-106zM65 0v707h146v-707h-146z" />
<glyph unicode="&#x13d;" horiz-adv-x="488" d="M219 674v-539h249v-135h-403v674h154zM501 699l-116 -211h-106l71 211h151z" />
<glyph unicode="&#x13e;" horiz-adv-x="276" d="M269 498l71 211h151l-116 -211h-106zM65 0v707h146v-707h-146z" />
<glyph unicode="&#x13f;" horiz-adv-x="506" d="M219 674v-539h249v-135h-403v674h154zM447.5 335.5q-23.5 -23.5 -59 -23.5t-59 23.5t-23.5 58t23.5 58t59 23.5t59 -23.5t23.5 -58t-23.5 -58z" />
<glyph unicode="&#x140;" horiz-adv-x="501" d="M329.5 312.5q-23.5 23.5 -23.5 58t23.5 58t59 23.5t59 -23.5t23.5 -58t-23.5 -58t-59 -23.5t-59 23.5zM60 0v707h146v-707h-146z" />
<glyph unicode="&#x141;" horiz-adv-x="563" d="M279 135h249v-135h-403v205l-80 -45v121l80 45v348h154v-262l164 92v-121l-164 -92v-156z" />
<glyph unicode="&#x142;" horiz-adv-x="341" d="M248 0h-146v263l-77 -53v121l77 53v323h146v-224l83 57v-121l-83 -57v-362z" />
<glyph unicode="&#x143;" horiz-adv-x="697" d="M65 0v674h169l157 -279q68 -121 97 -205q-10 74 -10 205v279h154v-674h-169l-161 279q-63 107 -90 184l-8 25q15 -90 15 -209v-279h-154zM302 721l86 177h146l-111 -177h-121z" />
<glyph unicode="&#x144;" horiz-adv-x="580" d="M206 507v-86q19 42 58.5 66.5t94.5 24.5q78 0 122 -46.5t44 -136.5v-329h-146v302q0 45 -21 68.5t-60 23.5t-65.5 -31.5t-26.5 -94.5v-268h-146v507h146zM490 731l-111 -177h-121l86 177h146z" />
<glyph unicode="&#x145;" horiz-adv-x="697" d="M65 0v674h169l157 -279q68 -121 97 -205q-10 74 -10 205v279h154v-674h-169l-161 279q-63 107 -90 184l-8 25q15 -90 15 -209v-279h-154zM209 -262l71 211h151l-116 -211h-106z" />
<glyph unicode="&#x146;" horiz-adv-x="580" d="M206 507v-86q19 42 58.5 66.5t94.5 24.5q78 0 122 -46.5t44 -136.5v-329h-146v302q0 45 -21 68.5t-60 23.5t-65.5 -31.5t-26.5 -94.5v-268h-146v507h146zM149 -262l71 211h151l-116 -211h-106z" />
<glyph unicode="&#x147;" horiz-adv-x="697" d="M415 721h-124l-156 177h139l79 -96l79 96h139zM65 0v674h169l157 -279q68 -121 97 -205q-10 74 -10 205v279h154v-674h-169l-161 279q-63 107 -90 184l-8 25q15 -90 15 -209v-279h-154z" />
<glyph unicode="&#x148;" horiz-adv-x="580" d="M206 507v-86q19 42 58.5 66.5t94.5 24.5q78 0 122 -46.5t44 -136.5v-329h-146v302q0 45 -21 68.5t-60 23.5t-65.5 -31.5t-26.5 -94.5v-268h-146v507h146zM361 554h-124l-156 177h139l79 -96l79 96h139z" />
<glyph unicode="&#x149;" horiz-adv-x="668" d="M294 507v-86q19 42 58.5 66.5t94.5 24.5q78 0 122 -46.5t44 -136.5v-329h-146v302q0 45 -21 68.5t-60 23.5t-65.5 -31.5t-26.5 -94.5v-268h-146v507h146zM61 694h129l-109 -210h-102z" />
<glyph unicode="&#x14a;" horiz-adv-x="697" d="M478 674h154v-674q-2 -94 -53.5 -145.5t-141.5 -51.5q-69 0 -107 20v136q37 -23 77 -23q65 0 71 64h-15l-161 279q-63 107 -90 184l-8 25q15 -90 15 -209v-279h-154v674h169l157 -279q68 -121 97 -205q-10 74 -10 205v279z" />
<glyph unicode="&#x14b;" horiz-adv-x="580" d="M206 507v-86q19 42 58.5 66.5t94.5 24.5q78 0 122 -46.5t44 -136.5v-350q0 -80 -45 -128.5t-130 -48.5q-35 0 -79 16v111q33 -15 57 -15q51 0 51 67v321q0 45 -21 68.5t-60 23.5t-65.5 -31.5t-26.5 -94.5v-268h-146v507h146z" />
<glyph unicode="&#x14c;" horiz-adv-x="736" d="M205 339q0 -95 44 -150.5t119 -55.5t119 55.5t44 150.5t-44 150.5t-119 55.5t-119 -55.5t-44 -150.5zM129 88q-89 95 -89 250.5t89.5 251t239 95.5t238.5 -95t89 -250.5t-89.5 -251t-239 -95.5t-238.5 95zM545 760h-356v99h356v-99z" />
<glyph unicode="&#x14d;" horiz-adv-x="567" d="M283 400q-48 0 -72 -41t-24 -106t24.5 -106.5t73 -41.5t72 40.5t23.5 105.5q0 149 -97 149zM466.5 66.5q-65.5 -74.5 -183.5 -74.5t-183 71.5t-65 186t68 190t183.5 75.5t180.5 -73t65 -187t-65.5 -188.5zM462 593h-356v99h356v-99z" />
<glyph unicode="&#x14e;" horiz-adv-x="736" d="M129 88q-89 95 -89 250.5t89.5 251t239 95.5t238.5 -95t89 -250.5t-89.5 -251t-239 -95.5t-238.5 95zM205 339q0 -95 44 -150.5t119 -55.5t119 55.5t44 150.5t-44 150.5t-119 55.5t-119 -55.5t-44 -150.5zM183 898h112q0 -42 23.5 -65.5t62.5 -23.5t62.5 23.5t23.5 65.5 h112q0 -93 -54.5 -137t-143.5 -44t-143.5 44t-54.5 137z" />
<glyph unicode="&#x14f;" horiz-adv-x="567" d="M466.5 66.5q-65.5 -74.5 -183.5 -74.5t-183 71.5t-65 186t68 190t183.5 75.5t180.5 -73t65 -187t-65.5 -188.5zM283 400q-48 0 -72 -41t-24 -106t24.5 -106.5t73 -41.5t72 40.5t23.5 105.5q0 149 -97 149zM90 731h112q0 -42 23.5 -65.5t62.5 -23.5t62.5 23.5t23.5 65.5 h112q0 -93 -54.5 -137t-143.5 -44t-143.5 44t-54.5 137z" />
<glyph unicode="&#x150;" horiz-adv-x="736" d="M205 339q0 -95 44 -150.5t119 -55.5t119 55.5t44 150.5t-44 150.5t-119 55.5t-119 -55.5t-44 -150.5zM129 88q-89 95 -89 250.5t89.5 251t239 95.5t238.5 -95t89 -250.5t-89.5 -251t-239 -95.5t-238.5 95zM228 721l86 177h133l-111 -177h-108zM415 721l94 177h145 l-131 -177h-108z" />
<glyph unicode="&#x151;" horiz-adv-x="567" d="M283 400q-48 0 -72 -41t-24 -106t24.5 -106.5t73 -41.5t72 40.5t23.5 105.5q0 149 -97 149zM466.5 66.5q-65.5 -74.5 -183.5 -74.5t-183 71.5t-65 186t68 190t183.5 75.5t180.5 -73t65 -187t-65.5 -188.5zM151 554l86 177h133l-111 -177h-108zM338 554l94 177h145 l-131 -177h-108z" />
<glyph unicode="&#x152;" horiz-adv-x="1000" d="M666 123h274v-123h-419v44q-70 -51 -158 -51q-149 0 -236 94.5t-87 251t87 251.5t236 95q88 0 158 -50v39h415v-123h-270v-153h242v-122h-242v-153zM363 133q74 0 116 55.5t42 150.5t-42 150.5t-116 55.5t-116 -55.5t-42 -150.5t42 -150.5t116 -55.5z" />
<glyph unicode="&#x153;" horiz-adv-x="879" d="M810 29q-52 -34 -164 -34t-186 74q-67 -77 -181 -77t-179 71.5t-65 186t68 190t178.5 75.5t176.5 -72q69 69 167 69t157 -59.5t59 -177.5q0 -23 -8 -79h-298q15 -42 52 -65t89 -23q77 0 134 43v-122zM285 105q49 0 75.5 41t26.5 105.5t-26 106.5t-76 42t-74 -41t-24 -106 t24.5 -106.5t73.5 -41.5zM705 300l-1 21q-9 80 -77 80q-35 0 -62 -25.5t-36 -75.5h176z" />
<glyph unicode="&#x154;" horiz-adv-x="614" d="M219 234v-234h-154v674h233q113 0 181.5 -60t68.5 -156q0 -144 -123 -199l171 -259h-184l-146 234h-47zM219 549v-190h73q100 0 100 98q0 43 -26 67.5t-71 24.5h-76zM466 898l-111 -177h-121l86 177h146z" />
<glyph unicode="&#x155;" horiz-adv-x="370" d="M205 507v-94q14 44 46.5 70.5t75.5 26.5q24 0 38 -4v-138q-24 11 -55 11q-47 0 -76 -34.5t-29 -91.5v-253h-146l1 507h145zM391 731l-111 -177h-121l86 177h146z" />
<glyph unicode="&#x156;" horiz-adv-x="614" d="M219 234v-234h-154v674h233q113 0 181.5 -60t68.5 -156q0 -144 -123 -199l171 -259h-184l-146 234h-47zM219 549v-190h73q100 0 100 98q0 43 -26 67.5t-71 24.5h-76zM165 -262l71 211h151l-116 -211h-106z" />
<glyph unicode="&#x157;" horiz-adv-x="370" d="M205 507v-94q14 44 46.5 70.5t75.5 26.5q24 0 38 -4v-138q-24 11 -55 11q-47 0 -76 -34.5t-29 -91.5v-253h-146l1 507h145zM-20 -262l71 211h151l-116 -211h-106z" />
<glyph unicode="&#x158;" horiz-adv-x="614" d="M219 234v-234h-154v674h233q113 0 181.5 -60t68.5 -156q0 -144 -123 -199l171 -259h-184l-146 234h-47zM219 549v-190h73q100 0 100 98q0 43 -26 67.5t-71 24.5h-76zM378 721h-124l-156 177h139l79 -96l79 96h139z" />
<glyph unicode="&#x159;" horiz-adv-x="370" d="M205 507v-94q14 44 46.5 70.5t75.5 26.5q24 0 38 -4v-138q-24 11 -55 11q-47 0 -76 -34.5t-29 -91.5v-253h-146l1 507h145zM274 554h-124l-156 177h139l79 -96l79 96h139z" />
<glyph unicode="&#x15a;" horiz-adv-x="514" d="M286 547q-39 0 -59.5 -16t-20.5 -41t25 -44.5t65.5 -37.5t61 -28.5t47 -29t41.5 -38.5q38 -50 38 -116q0 -91 -67 -147.5t-182 -56.5t-190 42v155q91 -66 194 -66q35 0 58 18.5t23 48.5q0 22 -11 33t-18.5 16.5t-22 13t-24.5 12.5q-31 15 -61 28q-65 30 -104.5 74 t-39.5 124t64 133.5t171 53.5t180 -34v-144q-81 47 -168 47zM202 721l86 177h146l-111 -177h-121z" />
<glyph unicode="&#x15b;" horiz-adv-x="436" d="M256 398q-26 0 -40 -10.5t-14 -23t5 -20.5t16.5 -15t22 -12.5t28.5 -13.5q68 -29 100 -65t32 -85q0 -75 -54 -116t-144.5 -41t-152.5 31v130q69 -48 146 -48q55 0 55 35q0 19 -22 32q-16 9 -43 20.5t-37 16.5q-101 48 -101 144q0 74 56.5 115t137.5 41t133 -21v-125 q-53 31 -124 31zM181 554l86 177h146l-111 -177h-121z" />
<glyph unicode="&#x15c;" horiz-adv-x="514" d="M209 898h124l156 -177h-139l-79 96l-79 -96h-139zM286 547q-39 0 -59.5 -16t-20.5 -41t25 -44.5t65.5 -37.5t61 -28.5t47 -29t41.5 -38.5q38 -50 38 -116q0 -91 -67 -147.5t-182 -56.5t-190 42v155q91 -66 194 -66q35 0 58 18.5t23 48.5q0 22 -11 33t-18.5 16.5t-22 13 t-24.5 12.5q-31 15 -61 28q-65 30 -104.5 74t-39.5 124t64 133.5t171 53.5t180 -34v-144q-81 47 -168 47z" />
<glyph unicode="&#x15d;" horiz-adv-x="436" d="M178 731h124l156 -177h-139l-79 96l-79 -96h-139zM256 398q-26 0 -40 -10.5t-14 -23t5 -20.5t16.5 -15t22 -12.5t28.5 -13.5q68 -29 100 -65t32 -85q0 -75 -54 -116t-144.5 -41t-152.5 31v130q69 -48 146 -48q55 0 55 35q0 19 -22 32q-16 9 -43 20.5t-37 16.5 q-101 48 -101 144q0 74 56.5 115t137.5 41t133 -21v-125q-53 31 -124 31z" />
<glyph unicode="&#x15e;" horiz-adv-x="514" d="M339 -125q0 -63 -45.5 -103t-133.5 -40v91q36 0 55.5 17t19.5 46t-26 63h113q17 -27 17 -74zM286 547q-39 0 -59.5 -16t-20.5 -41t25 -44.5t65.5 -37.5t61 -28.5t47 -29t41.5 -38.5q38 -50 38 -116q0 -91 -67 -147.5t-182 -56.5t-190 42v155q91 -66 194 -66q35 0 58 18.5 t23 48.5q0 22 -11 33t-18.5 16.5t-22 13t-24.5 12.5q-31 15 -61 28q-65 30 -104.5 74t-39.5 124t64 133.5t171 53.5t180 -34v-144q-81 47 -168 47z" />
<glyph unicode="&#x15f;" horiz-adv-x="436" d="M299 -125q0 -63 -45.5 -103t-133.5 -40v91q36 0 55.5 17t19.5 46t-26 63h113q17 -27 17 -74zM256 398q-26 0 -40 -10.5t-14 -23t5 -20.5t16.5 -15t22 -12.5t28.5 -13.5q68 -29 100 -65t32 -85q0 -75 -54 -116t-144.5 -41t-152.5 31v130q69 -48 146 -48q55 0 55 35 q0 19 -22 32q-16 9 -43 20.5t-37 16.5q-101 48 -101 144q0 74 56.5 115t137.5 41t133 -21v-125q-53 31 -124 31z" />
<glyph unicode="&#x160;" horiz-adv-x="514" d="M328 721h-124l-156 177h139l79 -96l79 96h139zM286 547q-39 0 -59.5 -16t-20.5 -41t25 -44.5t65.5 -37.5t61 -28.5t47 -29t41.5 -38.5q38 -50 38 -116q0 -91 -67 -147.5t-182 -56.5t-190 42v155q91 -66 194 -66q35 0 58 18.5t23 48.5q0 22 -11 33t-18.5 16.5t-22 13 t-24.5 12.5q-31 15 -61 28q-65 30 -104.5 74t-39.5 124t64 133.5t171 53.5t180 -34v-144q-81 47 -168 47z" />
<glyph unicode="&#x161;" horiz-adv-x="436" d="M301 553h-124l-156 177h139l79 -96l79 96h139zM256 398q-26 0 -40 -10.5t-14 -23t5 -20.5t16.5 -15t22 -12.5t28.5 -13.5q68 -29 100 -65t32 -85q0 -75 -54 -116t-144.5 -41t-152.5 31v130q69 -48 146 -48q55 0 55 35q0 19 -22 32q-16 9 -43 20.5t-37 16.5 q-101 48 -101 144q0 74 56.5 115t137.5 41t133 -21v-125q-53 31 -124 31z" />
<glyph unicode="&#x162;" horiz-adv-x="544" d="M514 674v-124h-164v-550h-155v550h-165v124h484zM122 -262l71 211h151l-116 -211h-106z" />
<glyph unicode="&#x163;" horiz-adv-x="386" d="M229 400v-233q0 -27 15.5 -41t48 -14t63.5 20v-121q-37 -16 -100 -16q-173 0 -173 173v232h-73v107h73v120h146v-120h118v-107h-118zM85 -262l71 211h151l-116 -211h-106z" />
<glyph unicode="&#x164;" horiz-adv-x="544" d="M514 674v-124h-164v-550h-155v550h-165v124h484zM334 721h-124l-156 177h139l79 -96l79 96h139z" />
<glyph unicode="&#x165;" horiz-adv-x="386" d="M351 799h151l-116 -211h-106zM229 400v-233q0 -27 15.5 -41t48 -14t63.5 20v-121q-37 -16 -100 -16q-173 0 -173 173v232h-73v107h73v120h146v-120h118v-107h-118z" />
<glyph unicode="&#x166;" horiz-adv-x="544" d="M514 550h-164v-165h110v-113h-110v-272h-155v272h-110v113h110v165h-165v124h484v-124z" />
<glyph unicode="&#x167;" horiz-adv-x="426" d="M249 220v-53q0 -27 15.5 -41t48 -14t63.5 20v-121q-37 -16 -100 -16q-173 0 -173 173v52h-73v102h73v83h-73v102h73v120h146v-120h118v-102h-118v-83h118v-102h-118z" />
<glyph unicode="&#x168;" horiz-adv-x="668" d="M404 740q-33 0 -69 17.5t-56 17.5t-34 -8.5t-36 -34.5l-65 64q16 34 47.5 58t68 24t77 -17.5t59.5 -17.5q48 0 70 43l74 -61q-42 -85 -136 -85zM454 260v414h154v-413q0 -132 -74 -201.5t-199 -69.5t-200 69t-75 195v420h154v-419q0 -125 120 -125t120 130z" />
<glyph unicode="&#x169;" horiz-adv-x="580" d="M374 507h146v-507h-146v81q-40 -85 -154 -85q-78 0 -121.5 43.5t-43.5 128.5v339h146v-306q0 -89 78 -89q95 0 95 127v268zM356 573q-33 0 -69 17.5t-56 17.5t-34 -8.5t-36 -34.5l-65 64q16 34 47.5 58t68 24t77 -17.5t59.5 -17.5q48 0 70 43l74 -61q-42 -85 -136 -85z " />
<glyph unicode="&#x16a;" horiz-adv-x="668" d="M520 760h-356v99h356v-99zM454 260v414h154v-413q0 -132 -74 -201.5t-199 -69.5t-200 69t-75 195v420h154v-419q0 -125 120 -125t120 130z" />
<glyph unicode="&#x16b;" horiz-adv-x="580" d="M374 507h146v-507h-146v81q-40 -85 -154 -85q-78 0 -121.5 43.5t-43.5 128.5v339h146v-306q0 -89 78 -89q95 0 95 127v268zM464 692v-99h-356v99h356z" />
<glyph unicode="&#x16c;" horiz-adv-x="668" d="M454 260v414h154v-413q0 -132 -74 -201.5t-199 -69.5t-200 69t-75 195v420h154v-419q0 -125 120 -125t120 130zM132 898h112q0 -42 23.5 -65.5t62.5 -23.5t62.5 23.5t23.5 65.5h112q0 -93 -54.5 -137t-143.5 -44t-143.5 44t-54.5 137z" />
<glyph unicode="&#x16d;" horiz-adv-x="580" d="M374 507h146v-507h-146v81q-40 -85 -154 -85q-78 0 -121.5 43.5t-43.5 128.5v339h146v-306q0 -89 78 -89q95 0 95 127v268zM378 731h112q0 -93 -54.5 -137t-143.5 -44t-143.5 44t-54.5 137h112q0 -42 23.5 -65.5t62.5 -23.5t62.5 23.5t23.5 65.5z" />
<glyph unicode="&#x16e;" horiz-adv-x="668" d="M454 260v414h154v-413q0 -132 -74 -201.5t-199 -69.5t-200 69t-75 195v420h154v-419q0 -125 120 -125t120 130zM283 849q0 -23 15 -39.5t38 -16.5t38 16.5t15 39.5t-15 39.5t-38 16.5t-38 -16.5t-15 -39.5zM200 846q0 56 40 96t96 40t96 -40t40 -96t-40 -96t-96 -40 t-96 40t-40 96z" />
<glyph unicode="&#x16f;" horiz-adv-x="580" d="M374 507h146v-507h-146v81q-40 -85 -154 -85q-78 0 -121.5 43.5t-43.5 128.5v339h146v-306q0 -89 78 -89q95 0 95 127v268zM291 543q-56 0 -96 40t-40 96t40 96t96 40t96 -40t40 -96t-40 -96t-96 -40zM291 738q-23 0 -38 -16.5t-15 -39.5t15 -39.5t38 -16.5t38 16.5 t15 39.5t-15 39.5t-38 16.5z" />
<glyph unicode="&#x170;" horiz-adv-x="668" d="M190 721l86 177h133l-111 -177h-108zM377 721l94 177h145l-131 -177h-108zM454 260v414h154v-413q0 -132 -74 -201.5t-199 -69.5t-200 69t-75 195v420h154v-419q0 -125 120 -125t120 130z" />
<glyph unicode="&#x171;" horiz-adv-x="580" d="M374 239v268h146v-507h-146v81q-40 -85 -154 -85q-78 0 -121.5 43.5t-43.5 128.5v339h146v-306q0 -89 78 -89q95 0 95 127zM369 731l-111 -177h-108l86 177h133zM445 554h-108l94 177h145z" />
<glyph unicode="&#x172;" horiz-adv-x="668" d="M454 674h154v-413q0 -98 -42.5 -162.5t-117.5 -90.5q-118 -73 -118 -130q0 -34 43.5 -34t86.5 30v-101q-48 -25 -113.5 -25t-99 33t-33.5 84q0 68 63 129q-100 15 -158.5 82t-58.5 178v420h154v-419q0 -125 120 -125t120 130v414z" />
<glyph unicode="&#x173;" horiz-adv-x="580" d="M520 507v-507q-118 -73 -118 -130q0 -34 43.5 -34t86.5 30v-101q-48 -25 -113.5 -25t-99 33t-33.5 84q0 81 88 150v74q-40 -85 -154 -85q-78 0 -121.5 43.5t-43.5 128.5v339h146v-306q0 -89 78 -89q95 0 95 127v268h146z" />
<glyph unicode="&#x174;" horiz-adv-x="971" d="M430 898h124l156 -177h-139l-79 96l-79 -96h-139zM431 664h114q110 -395 132 -496q13 89 56 259l62 247h157l-180 -674h-172q-103 372 -112 426q-3 -41 -54 -213l-62 -213h-172l-181 674h162q82 -328 95 -392.5t20 -113.5q16 73 135 496z" />
<glyph unicode="&#x175;" horiz-adv-x="806" d="M345 731h124l156 -177h-139l-79 96l-79 -96h-139zM168 0l-163 507h151q77 -292 87 -369q7 60 49 202l49 167h126q83 -289 96 -369q7 59 47 202l47 167h144l-162 -507h-150q-73 277 -85 354q-10 -67 -42 -188l-44 -166h-150z" />
<glyph unicode="&#x176;" horiz-adv-x="643" d="M397 0h-154v247l-230 427h180q101 -242 126 -314q10 45 88 216l44 98h179l-233 -426v-248zM321 817l-79 -96h-139l156 177h124l156 -177h-139z" />
<glyph unicode="&#x177;" horiz-adv-x="532" d="M103 -198q-31 0 -56 5v116q16 -4 34 -4q83 0 120 89l-196 499h159q97 -278 109 -335q13 49 104 335h150l-183 -492q-79 -213 -241 -213zM207 731h124l156 -177h-139l-79 96l-79 -96h-139z" />
<glyph unicode="&#x178;" horiz-adv-x="643" d="M397 0h-154v247l-230 427h180q101 -242 126 -314q10 45 88 216l44 98h179l-233 -426v-248zM253.5 750.5q-23.5 -23.5 -59 -23.5t-59 23.5t-23.5 58t23.5 58t59 23.5t59 -23.5t23.5 -58t-23.5 -58zM522 750.5q-24 -23.5 -59.5 -23.5t-59 23.5t-23.5 58t23.5 58t59 23.5 t59.5 -23.5t24 -58t-24 -58z" />
<glyph unicode="&#x179;" horiz-adv-x="621" d="M549 674v-109l-304 -441h316v-124h-501v113l302 437h-296v124h483zM272 721l86 177h146l-111 -177h-121z" />
<glyph unicode="&#x17a;" horiz-adv-x="479" d="M427 507v-101l-222 -293h234v-113h-399v105l222 290h-213v112h378zM200 553l86 177h146l-111 -177h-121z" />
<glyph unicode="&#x17b;" horiz-adv-x="621" d="M269.5 751.5q-23.5 23.5 -23.5 58t23.5 58t59 23.5t59 -23.5t23.5 -58t-23.5 -58t-59 -23.5t-59 23.5zM549 674v-109l-304 -441h316v-124h-501v113l302 437h-296v124h483z" />
<glyph unicode="&#x17c;" horiz-adv-x="479" d="M192.5 583.5q-23.5 23.5 -23.5 58t23.5 58t59 23.5t59 -23.5t23.5 -58t-23.5 -58t-59 -23.5t-59 23.5zM427 507v-101l-222 -293h234v-113h-399v105l222 290h-213v112h378z" />
<glyph unicode="&#x17d;" horiz-adv-x="621" d="M382 721h-124l-156 177h139l79 -96l79 96h139zM549 674v-109l-304 -441h316v-124h-501v113l302 437h-296v124h483z" />
<glyph unicode="&#x17e;" horiz-adv-x="479" d="M321 554h-124l-156 177h139l79 -96l79 96h139zM427 507v-101l-222 -293h234v-113h-399v105l222 290h-213v112h378z" />
<glyph unicode="&#x17f;" horiz-adv-x="305" d="M335 642q-27 11 -58 11q-67 0 -67 -77v-576h-145v576q0 92 51.5 143t142.5 51q47 0 76 -10v-118z" />
<glyph unicode="&#x192;" horiz-adv-x="522" d="M406 679q57 0 86 -10v-118q-28 11 -57 11q-72 0 -88 -107l-11 -69h96v-107h-112l-50 -321q-15 -98 -66 -156t-138 -58q-61 0 -96 15v118q32 -16 71 -16t57.5 26.5t26.5 80.5l48 311h-87v107h104l12 79q15 98 66 156t138 58z" />
<glyph unicode="&#x218;" horiz-adv-x="514" d="M119 -262l71 211h151l-116 -211h-106zM286 547q-39 0 -59.5 -16t-20.5 -41t25 -44.5t65.5 -37.5t61 -28.5t47 -29t41.5 -38.5q38 -50 38 -116q0 -91 -67 -147.5t-182 -56.5t-190 42v155q91 -66 194 -66q35 0 58 18.5t23 48.5q0 22 -11 33t-18.5 16.5t-22 13t-24.5 12.5 q-31 15 -61 28q-65 30 -104.5 74t-39.5 124t64 133.5t171 53.5t180 -34v-144q-81 47 -168 47z" />
<glyph unicode="&#x219;" horiz-adv-x="436" d="M256 398q-26 0 -40 -10.5t-14 -23t5 -20.5t16.5 -15t22 -12.5t28.5 -13.5q68 -29 100 -65t32 -85q0 -75 -54 -116t-144.5 -41t-152.5 31v130q69 -48 146 -48q55 0 55 35q0 19 -22 32q-16 9 -43 20.5t-37 16.5q-101 48 -101 144q0 74 56.5 115t137.5 41t133 -21v-125 q-53 31 -124 31zM79 -262l71 211h151l-116 -211h-106z" />
<glyph unicode="&#x21a;" horiz-adv-x="544" d="M514 674v-124h-164v-550h-155v550h-165v124h484zM125 -262l71 211h151l-116 -211h-106z" />
<glyph unicode="&#x21b;" horiz-adv-x="386" d="M229 400v-233q0 -27 15.5 -41t48 -14t63.5 20v-121q-37 -16 -100 -16q-173 0 -173 173v232h-73v107h73v120h146v-120h118v-107h-118zM108 -262l71 211h151l-116 -211h-106z" />
<glyph unicode="&#x237;" horiz-adv-x="274" d="M17 -86q52 0 52 67v526h145v-528q0 -80 -45 -128.5t-130 -48.5q-35 0 -79 16v111q33 -15 57 -15z" />
<glyph unicode="&#x2bc;" horiz-adv-x="258" d="M18 433l101 261h161l-136 -261h-126z" />
<glyph unicode="&#x2c6;" horiz-adv-x="500" d="M188 798h124l156 -177h-139l-79 96l-79 -96h-139z" />
<glyph unicode="&#x2c7;" horiz-adv-x="500" d="M312 621h-124l-156 177h139l79 -96l79 96h139z" />
<glyph unicode="&#x2c9;" horiz-adv-x="500" d="M428 651h-356v99h356v-99z" />
<glyph unicode="&#x2d8;" horiz-adv-x="500" d="M52 798h112q0 -42 23.5 -65.5t62.5 -23.5t62.5 23.5t23.5 65.5h112q0 -93 -54.5 -137t-143.5 -44t-143.5 44t-54.5 137z" />
<glyph unicode="&#x2d9;" horiz-adv-x="500" d="M190.5 652.5q-23.5 23.5 -23.5 58t23.5 58t59 23.5t59 -23.5t23.5 -58t-23.5 -58t-59 -23.5t-59 23.5z" />
<glyph unicode="&#x2da;" horiz-adv-x="500" d="M197 713q0 -23 15 -39.5t38 -16.5t38 16.5t15 39.5t-15 39.5t-38 16.5t-38 -16.5t-15 -39.5zM114 710q0 56 40 96t96 40t96 -40t40 -96t-40 -96t-96 -40t-96 40t-40 96z" />
<glyph unicode="&#x2db;" horiz-adv-x="500" d="M373 -221q-48 -25 -113.5 -25t-99 33t-33.5 78t20 81t52 62q54 44 113 70l49 -64q-118 -73 -118 -130q0 -34 43.5 -34t86.5 30v-101z" />
<glyph unicode="&#x2dc;" horiz-adv-x="500" d="M312 621q-33 0 -69 17.5t-56 17.5t-34 -8.5t-36 -34.5l-65 64q16 34 47.5 58t68 24t77 -17.5t59.5 -17.5q48 0 70 43l74 -61q-42 -85 -136 -85z" />
<glyph unicode="&#x2dd;" horiz-adv-x="500" d="M37 621l86 177h133l-111 -177h-108zM224 621l94 177h145l-131 -177h-108z" />
<glyph unicode="&#x3c0;" horiz-adv-x="606" d="M596 507v-107h-80v-400h-146v400h-124v-184q0 -121 -48.5 -168.5t-158.5 -47.5v119q34 0 47.5 16.5t13.5 65.5v199h-80v107h576z" />
<glyph unicode="&#x901;" horiz-adv-x="0" d="M-210 977q0 29 20.5 49.5t49.5 20.5t49.5 -20.5t20.5 -49.5t-20.5 -49.5t-49.5 -20.5t-49.5 20.5t-20.5 49.5zM26 784q-68 -51 -170.5 -51t-167 48.5t-64.5 140.5h136q0 -39 27.5 -64t72.5 -25t71.5 25t26.5 64h136q0 -87 -68 -138z" />
<glyph unicode="&#x902;" horiz-adv-x="0" d="M-222 818q0 34 24 58t58 24t58 -24t24 -58t-24 -58t-58 -24t-58 24t-24 58z" />
<glyph unicode="&#x903;" horiz-adv-x="285" d="M88 153q0 35 24 58.5t58 23.5t58 -23.5t24 -58.5t-24 -58.5t-58 -23.5t-58 23.5t-24 58.5zM88 484q0 34 24 58t58 24t58 -24t24 -58t-24 -58t-58 -24t-58 24t-24 58z" />
<glyph unicode="&#x905;" horiz-adv-x="702" d="M732 671v-112h-100v-559h-142v232h-107v-7q0 -80 -54.5 -130t-162.5 -50q-73 0 -136 22v130q64 -34 129 -34q88 0 88 84q0 32 -20.5 51t-74.5 19h-41v118h31q83 0 83 62q0 60 -70 60q-51 0 -105 -25v127q49 19 116 19q96 0 148 -43.5t52 -119.5q0 -52 -27 -89t-77 -51 q42 -6 71 -29h157v213h-77v112h319z" />
<glyph unicode="&#x906;" horiz-adv-x="981" d="M1011 671v-112h-100v-559h-141v559h-138v-559h-142v232h-107v-7q0 -80 -54.5 -130t-162.5 -50q-73 0 -136 22v130q64 -34 129 -34q88 0 88 84q0 32 -20.5 51t-74.5 19h-41v118h31q83 0 83 62q0 60 -70 60q-51 0 -105 -25v127q49 19 116 19q96 0 148 -43.5t52 -119.5 q0 -52 -27 -89t-77 -51q42 -6 71 -29h157v213h-77v112h598z" />
<glyph unicode="&#x907;" horiz-adv-x="529" d="M454 559v-154h-1l1 -3h-202q-51 0 -51 -36.5t72 -36.5q119 0 172.5 -40.5t53.5 -117t-52.5 -125.5t-128 -49t-128.5 28v-96h-140v252h130q13 -35 44 -57t64.5 -22t52.5 16.5t19 37.5t-7.5 31.5t-21.5 14.5q-23 8 -58 8q-215 0 -215 147q0 79 56 118t144 39h56v45h-344 v112h589v-112h-105z" />
<glyph unicode="&#x908;" horiz-adv-x="529" d="M444 559v-154h-1l1 -3h-192q-51 0 -51 -36.5t72 -36.5q119 0 172.5 -40.5t53.5 -117t-52.5 -125.5t-128 -49t-128.5 28v-96h-140v252h130q13 -35 44 -57t64.5 -22t52.5 16.5t19 37.5t-7.5 31.5t-21.5 14.5q-23 8 -58 8q-215 0 -215 147q0 79 56 118t144 39h46v45h-334 v112h304q-31 44 -31 97q0 82 53 125.5t127.5 43.5t125.5 -25v-130q-43 31 -104 31q-27 0 -42.5 -17t-15.5 -48t30 -77h142v-112h-115z" />
<glyph unicode="&#x909;" horiz-adv-x="464" d="M494 671v-112h-126q26 -34 26 -85t-35 -84.5t-97 -41.5q80 -8 123.5 -46.5t43.5 -102.5q0 -91 -67 -140t-186 -49q-83 0 -146 22v130q64 -34 133 -34t96.5 20.5t27.5 63.5q0 77 -135 77h-41v118h31q54 0 82 16.5t28 60.5t-31 75h-251v112h524z" />
<glyph unicode="&#x90a;" horiz-adv-x="726" d="M756 671v-112h-388q26 -34 26 -85t-35 -84.5t-97 -41.5q57 -6 96 -27q30 105 154 105q91 0 143 -53t52 -144.5t-54.5 -152t-154.5 -60.5q-16 0 -33 3v111q8 -2 17 -2q45 0 64.5 24t19.5 69q0 92 -66 92q-34 0 -52.5 -31t-18.5 -80v-3q0 -91 -67 -140t-186 -49 q-83 0 -146 22v130q64 -34 133 -34t96.5 20.5t27.5 63.5q0 77 -135 77h-41v118h31q54 0 82 16.5t28 60.5t-31 75h-251v112h786z" />
<glyph unicode="&#x90b;" horiz-adv-x="913" d="M521 559v-167l85 49v64h135v-85q0 -38 16.5 -60.5t49.5 -22.5h34v-112h-46q-86 0 -86 -51q0 -18 14.5 -28.5t35.5 -10.5q64 0 104 27v-118q-35 -20 -107.5 -20t-128 34.5t-55.5 104.5q0 89 98 118q-27 17 -44 44l-105 -60v-265h-143v195l-303 -169v133l165 90 q-2 117 -100 117q-33 0 -66 -14v123q36 12 80 12q172 0 197 -177l27 15v234h-408v112h973v-112h-422z" />
<glyph unicode="&#x90c;" horiz-adv-x="823" d="M732 559v-377q-52 0 -81.5 -19t-29.5 -52q0 -56 72 -56q54 0 100 23v-109q-49 -22 -126.5 -22t-132 40.5t-54.5 115.5q0 45 28.5 82.5t80.5 52.5v132q-23 7 -47 7q-48 0 -69.5 -24t-21.5 -77v-65h-143v67q0 85 -66.5 85t-66.5 -99q0 -147 156 -147q21 0 43 3v-115 q-27 -4 -59 -4q-128 0 -204 72t-76 193q0 98 50.5 156t140.5 58q61 0 102.5 -26t50.5 -63q28 97 155 97q23 0 55 -10v81h-619v112h883v-112h-121z" />
<glyph unicode="&#x90d;" horiz-adv-x="577" d="M607 671v-112h-75v-121q0 -85 -47.5 -127.5t-120.5 -42.5q-39 0 -67 7v110q28 -4 35 -4q31 0 46 15.5t15 53.5v109h-187v-296q0 -57 39.5 -87t115 -30t150.5 33v-127q-77 -27 -168 -27q-125 0 -201.5 60t-76.5 179v295h-95v112h637zM398 922h136q0 -87 -63.5 -138 t-165 -51t-161.5 48t-60 141h136q0 -41 23 -65t67 -24t66 24t22 65z" />
<glyph unicode="&#x90e;" horiz-adv-x="577" d="M607 671v-112h-75v-121q0 -85 -47.5 -127.5t-120.5 -42.5q-39 0 -67 7v110q28 -4 35 -4q31 0 46 15.5t15 53.5v109h-187v-296q0 -57 39.5 -87t115 -30t150.5 33v-127q-77 -27 -168 -27q-125 0 -201.5 60t-76.5 179v295h-95v112h422q-2 35 -13 47.5t-41 12.5h-27 q-30 0 -50.5 1.5t-52 11.5t-51 27.5t-34.5 52.5t-15 84h143q0 -40 16.5 -52t61.5 -12h25q177 0 179 -173h74z" />
<glyph unicode="&#x90f;" horiz-adv-x="577" d="M607 671v-112h-75v-121q0 -85 -47.5 -127.5t-120.5 -42.5q-39 0 -67 7v110q28 -4 35 -4q31 0 46 15.5t15 53.5v109h-187v-296q0 -57 39.5 -87t115 -30t150.5 33v-127q-77 -27 -168 -27q-125 0 -201.5 60t-76.5 179v295h-95v112h637z" />
<glyph unicode="&#x910;" horiz-adv-x="577" d="M607 671v-112h-75v-121q0 -85 -47.5 -127.5t-120.5 -42.5q-39 0 -67 7v110q28 -4 35 -4q31 0 46 15.5t15 53.5v109h-187v-296q0 -57 39.5 -87t115 -30t150.5 33v-127q-77 -27 -168 -27q-125 0 -201.5 60t-76.5 179v295h-95v112h411l-67 98q-27 41 -76 41q-31 0 -64 -10 v118q36 7 86 6q108 -1 167 -91l105 -162h75z" />
<glyph unicode="&#x911;" horiz-adv-x="983" d="M1013 671v-112h-100v-559h-141v559h-140v-559h-142v232h-107v-7q0 -80 -54.5 -130t-162.5 -50q-73 0 -136 22v130q64 -34 129 -34q88 0 88 84q0 32 -20.5 51t-74.5 19h-41v118h31q83 0 83 62q0 60 -70 60q-51 0 -105 -25v127q49 19 116 19q96 0 148 -43.5t52 -119.5 q0 -52 -27 -89t-77 -51q42 -6 71 -29h157v213h-77v112h600zM802 922h136q0 -87 -63.5 -138t-165 -51t-161.5 48t-60 141h136q0 -41 23 -65t67 -24t66 24t22 65z" />
<glyph unicode="&#x912;" horiz-adv-x="983" d="M1013 671v-112h-100v-559h-141v559h-140v-559h-142v232h-107v-7q0 -80 -54.5 -130t-162.5 -50q-73 0 -136 22v130q64 -34 129 -34q88 0 88 84q0 32 -20.5 51t-74.5 19h-41v118h31q83 0 83 62q0 60 -70 60q-51 0 -105 -25v127q49 19 116 19q96 0 148 -43.5t52 -119.5 q0 -52 -27 -89t-77 -51q42 -6 71 -29h157v213h-77v112h359q-2 35 -13 47.5t-41 12.5h-27q-30 0 -50.5 1.5t-52 11.5t-51 27.5t-34.5 52.5t-15 84h143q0 -40 16.5 -52t61.5 -12h25q177 0 179 -173h100z" />
<glyph unicode="&#x913;" horiz-adv-x="983" d="M1013 671v-112h-100v-559h-141v559h-140v-559h-142v232h-107v-7q0 -80 -54.5 -130t-162.5 -50q-73 0 -136 22v130q64 -34 129 -34q88 0 88 84q0 32 -20.5 51t-74.5 19h-41v118h31q83 0 83 62q0 60 -70 60q-51 0 -105 -25v127q49 19 116 19q96 0 148 -43.5t52 -119.5 q0 -52 -27 -89t-77 -51q42 -6 71 -29h157v213h-77v112h350l-67 98q-27 41 -76 41q-31 0 -64 -10v118q36 7 86 6q108 -1 167 -91l105 -162h99z" />
<glyph unicode="&#x914;" horiz-adv-x="983" d="M1013 671v-112h-100v-559h-141v559h-140v-559h-142v232h-107v-7q0 -80 -54.5 -130t-162.5 -50q-73 0 -136 22v130q64 -34 129 -34q88 0 88 84q0 32 -20.5 51t-74.5 19h-41v118h31q83 0 83 62q0 60 -70 60q-51 0 -105 -25v127q49 19 116 19q96 0 148 -43.5t52 -119.5 q0 -52 -27 -89t-77 -51q42 -6 71 -29h157v213h-77v112h323q-106 55 -173 55q-30 0 -56 -7v100q31 9 72 9t86.5 -23.5t139.5 -103.5l-95 112q-30 35 -58.5 51t-70 16t-74.5 -10v105q27 9 83 9q126 0 200 -122l116 -191h107z" />
<glyph unicode="&#x915;" horiz-adv-x="809" d="M839 559h-364v-109q44 39 106 39q89 0 143.5 -55.5t54.5 -145t-62 -145t-159 -55.5q-15 0 -23 1v113q6 -1 16 -1q41 0 63.5 25t22.5 62.5t-21 63t-58.5 25.5t-60 -25.5t-22.5 -67.5v-284h-142v116q-43 -38 -106 -38q-89 0 -143.5 55.5t-54.5 145t62 145t159 55.5 q14 0 23 -1v-113q-6 1 -16 1q-41 0 -63.5 -25t-22.5 -62.5t21 -63t58.5 -25.5t60 25.5t22.5 67.5v276h-363v112h869v-112z" />
<glyph unicode="&#x916;" horiz-adv-x="841" d="M871 671v-112h-100v-559h-142v132q-40 -26 -95 -26q-79 0 -131.5 52.5t-52.5 134.5t56 134.5t139 52.5q14 0 28 -2v-103h-10q-37 0 -59 -24t-22 -60.5t21.5 -58.5t53.5 -22q72 0 72 73v276h-286v-124q0 -68 -35 -113q-37 -49 -108 -62l203 -260h-170l-198 256v110h76 q92 0 92 77v116h-233v112h901z" />
<glyph unicode="&#x917;" horiz-adv-x="585" d="M-30 671h645v-112h-100v-559h-140v559h-111v-214q0 -72 -40.5 -107t-96.5 -35t-97 14v110q22 -12 49 -12q44 0 44 46v198h-153v112z" />
<glyph unicode="&#x918;" horiz-adv-x="638" d="M668 671v-112h-100v-559h-140v140q-25 -35 -74 -53t-102 -18q-93 0 -155.5 45t-62.5 123q0 60 42.5 98t114.5 43q-68 2 -105.5 29.5t-37.5 73.5t30 78h-108v112h698zM428 341v218h-207q-31 -26 -31 -61q0 -61 89 -61h40v-118h-48q-44 0 -69.5 -18.5t-25.5 -50t25.5 -48 t66.5 -16.5q72 0 116 39.5t44 115.5z" />
<glyph unicode="&#x919;" horiz-adv-x="655" d="M-30 671h715v-112h-252v-152h-1l1 -3h-209q-51 0 -51 -39q0 -24 27 -30.5t89 -6.5q200 0 200 -153q-2 -76 -65.5 -125.5t-179 -49.5t-209.5 52v130q106 -65 217 -65q47 0 72 14t25 38.5t-23 33t-73 8.5t-84.5 7t-66 23t-50 47t-18.5 74q0 77 56.5 115.5t134.5 38.5h68v43 h-323v112zM552 435q32 0 54 -22.5t22 -53.5t-22 -53.5t-54 -22.5t-54 22.5t-22 53.5t22 53.5t54 22.5z" />
<glyph unicode="&#x91a;" horiz-adv-x="660" d="M690 671v-112h-100v-559h-140v168q-55 -77 -181 -77q-87 0 -138.5 47t-51.5 117t53 104h-112v115h359v-115q-165 0 -165 -86q0 -33 25 -51t68 -18q65 0 104 41t39 78v236h-480v112h720z" />
<glyph unicode="&#x91b;" horiz-adv-x="657" d="M687 559h-139v-85q74 -50 74 -152q0 -124 -91 -198.5t-232 -74.5q-106 0 -180 45.5t-74 127.5q0 56 37.5 89t105.5 37q-64 1 -98.5 37.5t-34.5 87.5t33 86h-118v112h717v-112zM414 559h-176q-42 -33 -42 -82q0 -30 19 -50t53 -20h37v-118h-37q-81 0 -81 -60 q0 -29 31.5 -46.5t81.5 -17.5q81 0 130 39.5t49 105.5q0 41 -22 62.5t-54.5 21.5t-50.5 -5v111q23 6 62 8v51z" />
<glyph unicode="&#x91c;" horiz-adv-x="658" d="M-30 671h719v-112h-101v-559h-142v348h-141q58 -38 58 -119t-56 -127.5t-138 -46.5t-139 21v124q47 -25 101 -25q99 0 99 82q0 43 -36 67t-107 24v115h359v96h-476v112z" />
<glyph unicode="&#x91d;" horiz-adv-x="781" d="M811 671v-112h-100v-559h-142v229h-86q8 -23 8 -58q0 -76 -51.5 -122.5t-126.5 -46.5t-129 31v-84h-140v238h130q17 -37 47 -58.5t62.5 -21.5t50.5 14.5t18 44t-23 40.5t-64 11q-207 0 -207 143q0 79 55.5 116.5t144.5 37.5h56v45h-344v112h841zM265 336h304v223h-115 v-154h-1l1 -3h-190q-63 0 -63 -34q0 -32 64 -32z" />
<glyph unicode="&#x91e;" horiz-adv-x="690" d="M720 671v-112h-100v-559h-142v234h-59q-14 -78 -75 -126.5t-156 -54.5q-88 0 -158 37v127q72 -43 147 -43q51 0 77.5 27.5t26.5 71t-24.5 68.5t-69 25t-88.5 -19v119q42 17 113.5 17t126 -36t73.5 -101h66v213h-508v112h750z" />
<glyph unicode="&#x91f;" horiz-adv-x="520" d="M453 559v-202q-32 7 -105.5 7t-117 -32t-43.5 -87.5t42.5 -85t112.5 -29.5q39 0 81 12.5t66 28.5v-127q-68 -35 -158 -35q-135 0 -211 64t-76 177q0 93 68 157.5t191 68.5h10v83h-343v112h580v-112h-97z" />
<glyph unicode="&#x920;" horiz-adv-x="575" d="M605 559h-223v-91q73 -20 116 -71.5t43 -127.5q0 -94 -67.5 -152t-182 -59t-185.5 56.5t-71 152t59 147t147 63.5v82h-271v112h635v-112zM209.5 196q32.5 -27 82 -27t78.5 27t29 74.5t-29.5 72.5t-79.5 25.5t-81.5 -24t-31.5 -73t32.5 -75.5z" />
<glyph unicode="&#x921;" horiz-adv-x="534" d="M433 559v-152h-1l1 -3h-209q-51 0 -51 -39q0 -24 27 -30.5t89 -6.5q200 0 200 -153q-2 -76 -65.5 -125.5t-179 -49.5t-209.5 52v130q106 -65 217 -65q47 0 72 14t25 38.5t-23 33t-73 8.5t-84.5 7t-66 23t-50 47t-18.5 74q0 77 56.5 115.5t134.5 38.5h68v43h-323v112h594 v-112h-131z" />
<glyph unicode="&#x922;" horiz-adv-x="564" d="M266 299q44 23 109 23t109.5 -37t44.5 -108.5t-61.5 -119.5t-175 -48t-188 69.5t-74.5 179.5t79 168t206 60h9v73h-354v112h624v-112h-130v-192q-47 11 -99.5 11t-93 -11t-69.5 -41t-29 -78.5t37 -87t96 -38.5q38 0 63.5 15t25.5 39q0 46 -57 46q-42 0 -72 -22v99z" />
<glyph unicode="&#x923;" horiz-adv-x="754" d="M784 671v-112h-100v-559h-141v559h-117v-205q0 -96 -53 -146.5t-147.5 -50.5t-145 49t-50.5 145v208h-60v112h814zM287 342v217h-117v-218q0 -66 58.5 -66t58.5 67z" />
<glyph unicode="&#x924;" horiz-adv-x="608" d="M638 671v-112h-100v-559h-142v360h-70q-68 0 -103.5 -30.5t-35.5 -88.5q0 -122 105 -122q11 0 17 1v-117q-24 -2 -40 -2q-106 0 -165 66.5t-59 173.5t70 170t207 63h74v85h-426v112h668z" />
<glyph unicode="&#x925;" horiz-adv-x="674" d="M409 507q0 -147 -227 -218q15 -36 49.5 -57t86 -21t98 32.5t46.5 107.5v320h232v-112h-90v-559h-142v150q-21 -27 -67.5 -43.5t-100.5 -16.5q-107 0 -186.5 76.5t-87.5 199.5q141 36 199.5 66.5t58.5 81t-43 50.5q-45 0 -45 -52q0 -28 12 -55h-134q-11 32 -11 67 q0 68 46.5 112.5t127.5 44.5t129.5 -46t48.5 -128z" />
<glyph unicode="&#x926;" horiz-adv-x="579" d="M-30 671h639v-112h-112v-176h-208q-53 0 -84.5 -28t-31.5 -75.5t27 -74t71 -26.5q94 0 110 100h138v-289h-140v125q-18 -26 -57.5 -39.5t-75.5 -13.5q-98 0 -157 61.5t-59 156.5t65.5 155t187.5 60h71v64h-384v112z" />
<glyph unicode="&#x927;" horiz-adv-x="643" d="M673 671v-112h-100v-559h-140v136q-57 -67 -176 -67q-93 0 -155.5 45t-62.5 123q0 59 41.5 92.5t115.5 38.5q-68 2 -105.5 29.5t-37.5 82t44 79.5h-127v112h325v-112h-3q-97 0 -97 -71q0 -61 89 -61h40v-118h-48q-95 0 -95 -58q0 -32 25.5 -48.5t66.5 -16.5 q73 0 116.5 36t43.5 110v339h240z" />
<glyph unicode="&#x928;" horiz-adv-x="529" d="M-30 671h589v-112h-100v-559h-142v316h-125q-18 0 -26 -9t-8 -37t8 -68h-112q-34 57 -34 130q0 45 28 70.5t82 25.5h187v131h-347v112z" />
<glyph unicode="&#x929;" horiz-adv-x="529" d="M-30 671h589v-112h-100v-559h-142v316h-125q-18 0 -26 -9t-8 -37t8 -68h-112q-34 57 -34 130q0 45 28 70.5t82 25.5h187v131h-347v112zM148 139q32 0 54 -22.5t22 -53.5t-22 -53.5t-54 -22.5t-54 22.5t-22 53.5t22 53.5t54 22.5z" />
<glyph unicode="&#x92a;" horiz-adv-x="577" d="M607 671v-112h-100v-559h-142v212q-48 -41 -117 -41q-89 0 -138.5 50t-49.5 154v184h-90v112h637zM365 376v183h-163v-190q0 -86 74 -86q39 0 64 24.5t25 68.5z" />
<glyph unicode="&#x92b;" horiz-adv-x="844" d="M874 559h-367v-100q48 41 117 41q87 0 136 -56.5t49 -138.5q0 -100 -62 -152.5t-156 -52.5q-17 0 -25 1v113q6 -1 16 -1q86 0 86 91q0 35 -19.5 59.5t-55.5 24.5t-61 -24.5t-25 -68.5v-295h-142v212q-48 -41 -117 -41q-89 0 -138.5 50t-49.5 154v184h-90v112h904v-112z M365 376v183h-163v-190q0 -86 74 -86q39 0 64 24.5t25 68.5z" />
<glyph unicode="&#x92c;" horiz-adv-x="632" d="M662 671v-112h-100v-559h-142v132q-63 -58 -155.5 -58t-161 62t-68.5 156t63.5 156.5t168.5 62.5q46 0 81 -8v-122q-30 10 -58.5 10t-45.5 -5l166 -137q10 22 10 42v268h-450v112h692zM193 346q-15 -24 -15 -64.5t30 -69t74 -28.5t81 20z" />
<glyph unicode="&#x92d;" horiz-adv-x="591" d="M383 378v293h238v-112h-100v-559h-138v266h-153v-125h-122l-36 77q-27 57 -27 88q0 52 46 65v143q0 47 -46 47q-26 0 -54 -14v109q38 20 86 20q153 0 153 -145v-153h153z" />
<glyph unicode="&#x92e;" horiz-adv-x="585" d="M377 559h-158v-186h158v186zM-30 559v112h645v-112h-100v-559h-138v261h-158v-122h-119l-36 80q-29 66 -29 92q0 43 45 55v193h-110z" />
<glyph unicode="&#x92f;" horiz-adv-x="634" d="M300 230q57 0 90 33t33 99v197h-130q21 -32 21 -91.5t-36.5 -101t-94.5 -60.5q23 -76 117 -76zM276 106q-99 0 -170.5 72t-86.5 198q156 22 156 104q0 50 -29 79h-176v112h694v-112h-100v-559h-141v170q-17 -29 -57 -46.5t-90 -17.5z" />
<glyph unicode="&#x930;" horiz-adv-x="417" d="M35 366h76q92 0 92 76v117h-233v112h477v-112h-104v-125q0 -67 -33.5 -112.5t-96.5 -57.5q-8 -2 -15 -2l205 -262h-170l-198 256v110z" />
<glyph unicode="&#x931;" horiz-adv-x="417" d="M35 366h76q92 0 92 76v117h-233v112h477v-112h-104v-125q0 -67 -33.5 -112.5t-96.5 -57.5q-8 -2 -15 -2l205 -262h-170l-198 256v110zM-40 30q0 32 22 54t54 22t54 -22t22 -54t-22 -54t-54 -22t-54 22t-22 54z" />
<glyph unicode="&#x932;" horiz-adv-x="761" d="M791 671v-112h-100v-559h-143v376q-6 1 -17 1q-48 0 -69 -24t-21 -77v-65h-143v67q0 85 -58 85q-66 0 -66 -99q0 -147 156 -147q20 0 43 3v-115q-27 -4 -59 -4q-128 0 -204 72t-76 193q0 98 50.5 156t140.5 58q60 0 97.5 -25.5t46.5 -63.5q28 97 154 97q9 0 25 -2v73 h-578v112h821z" />
<glyph unicode="&#x933;" horiz-adv-x="802" d="M832 559h-205v-75q66 -19 105.5 -70.5t39.5 -123.5q0 -91 -62.5 -147t-152 -56t-163.5 59q-57 -59 -148.5 -59t-153.5 56.5t-62 148t61 148.5t153 57t157 -57q45 40 93 49v70h-524v112h862v-112zM253 199q47 0 73 85q12 37 16 59q-45 42 -86.5 42t-62 -26t-20.5 -68 t21 -67t59 -25zM457 243q48 -44 88.5 -44t62 25.5t21.5 66.5t-21.5 66.5t-59.5 25.5q-73 0 -91 -140z" />
<glyph unicode="&#x934;" horiz-adv-x="802" d="M832 559h-205v-75q66 -19 105.5 -70.5t39.5 -123.5q0 -91 -62.5 -147t-152 -56t-163.5 59q-57 -59 -148.5 -59t-153.5 56.5t-62 148t61 148.5t153 57t157 -57q45 40 93 49v70h-524v112h862v-112zM253 199q47 0 73 85q12 37 16 59q-45 42 -86.5 42t-62 -26t-20.5 -68 t21 -67t59 -25zM457 243q48 -44 88.5 -44t62 25.5t21.5 66.5t-21.5 66.5t-59.5 25.5q-73 0 -91 -140zM220 4q32 0 54 -22t22 -54t-22 -54t-54 -22t-54 22t-22 54t22 54t54 22z" />
<glyph unicode="&#x935;" horiz-adv-x="603" d="M633 671v-112h-100v-559h-142v135q-55 -49 -143 -49t-150.5 55t-62.5 149t61.5 154.5t161.5 60.5q40 0 70 -8v-122q-34 9 -66 9t-58 -24t-26 -67.5t26.5 -69t71.5 -25.5t80 26.5t35 66.5v268h-421v112h663z" />
<glyph unicode="&#x936;" horiz-adv-x="720" d="M508 671h242v-112h-100v-559h-142v671zM57 513q0 68 50.5 116t137.5 48t142 -55.5t55 -142.5q0 -112 -73 -173t-175 -67l237 -239h-180l-221 234v117h112q77 0 119 34t42 95q0 80 -61 80q-24 0 -36.5 -17t-12.5 -44.5t17 -59.5h-135q-18 35 -18 74z" />
<glyph unicode="&#x937;" horiz-adv-x="610" d="M640 671v-112h-100v-559h-139v211q-54 -45 -140.5 -45t-143.5 53t-57 156v184h-90v112h670zM195 369q0 -46 27.5 -69t70 -23t77.5 29l-175 177v-114zM401 559h-172l172 -179v179z" />
<glyph unicode="&#x938;" horiz-adv-x="682" d="M712 671v-112h-100v-559h-141v243h-150q-57 0 -125 8l187 -251h-170l-193 269v98h71q92 0 92 77v115h-213v112h742zM471 354v205h-148v-114q0 -53 -21 -91h169z" />
<glyph unicode="&#x939;" horiz-adv-x="551" d="M483 401h-255q-37 0 -37 -26.5t28 -48.5q38 8 82 8q91 0 148 -43t57 -108q0 -38 -9 -58h-138q10 19 10 44t-20 37.5t-62 12.5t-69 -19t-27 -50q0 -81 136 -81q51 0 138 19v-115q-80 -17 -144 -17q-132 0 -202 58.5t-70 137t66 129.5q-70 41 -70 104.5t43 94.5t111 31h144 v48h-373v112h611v-112h-98v-158z" />
<glyph unicode="&#x93c;" horiz-adv-x="0" d="M-361 -132q0 32 22.5 54t53.5 22t53.5 -22t22.5 -54t-22.5 -54t-53.5 -22t-53.5 22t-22.5 54z" />
<glyph unicode="&#x93d;" horiz-adv-x="583" d="M465.5 47.5q-57.5 -50.5 -174 -50.5t-224.5 61v145q44 -29 108.5 -53t119.5 -24q82 0 82 56q0 20 -22.5 42.5t-56.5 41.5t-74 45.5t-74 53.5t-56.5 67t-22.5 85q0 71 50 112.5t138 41.5h229v-129h-213q-48 0 -48 -36q0 -24 30.5 -49.5t74 -50.5t87 -54.5t74 -74.5 t30.5 -98q0 -81 -57.5 -131.5z" />
<glyph unicode="&#x93e;" d="M-30 559v112h341v-112h-100v-559h-141v559h-100z" />
<glyph unicode="&#x93f;" d="M461 791q-105 23 -156 23q-94 0 -94 -80v-63h100v-112h-100v-559h-141v559h-100v112h100v64q0 88 58.5 142t162.5 54q112 0 242 -36q47 -13 138 -41v-124q-105 38 -210 61z" />
<glyph unicode="&#x940;" d="M210 671h101v-112h-100v-559h-141v559h-100v112h99v60q0 37 -19.5 57t-55.5 20q-70 0 -70 -77v-25h-142v30q0 94 60 142t152.5 48t154 -47.5t61.5 -141.5v-66z" />
<glyph unicode="&#x941;" horiz-adv-x="0" d="M-154 -192q31 0 48 13.5t17 34.5t-17 32t-56 11t-95 -27v122q52 18 109 18q91 0 143 -41.5t52 -112.5t-52 -118t-139.5 -47t-164.5 36.5t-129 80.5v154q56 -58 135 -107t149 -49z" />
<glyph unicode="&#x942;" horiz-adv-x="0" d="M-144 -290q-80 0 -131 39.5t-51 110t48.5 114.5t121.5 44t127.5 -29.5t86.5 -76.5q63 -93 63 -204h-131q0 82 -38 139.5t-98 57.5q-21 0 -34 -12t-13 -31t16 -32.5t42.5 -13.5t51.5 11v-106q-27 -11 -61 -11z" />
<glyph unicode="&#x943;" horiz-adv-x="0" d="M-300.5 -274q-51.5 45 -51.5 109.5t37.5 103t103.5 48.5v25h141v-127h-49q-50 0 -73 -12t-23 -37q0 -49 59 -49q49 0 93 27v-107q-47 -26 -105 -26q-81 0 -132.5 45z" />
<glyph unicode="&#x945;" horiz-adv-x="0" d="M20.5 784q-63.5 -51 -165 -51t-161.5 48t-60 141h136q0 -41 23 -65t67 -24t66 24t22 65h136q0 -87 -63.5 -138z" />
<glyph unicode="&#x946;" horiz-adv-x="0" d="M-274 844h25q179 0 179 -178h-141q-1 38 -12 51.5t-42 13.5h-27q-30 0 -50.5 1.5t-52 11.5t-51 27.5t-34.5 52.5t-15 84h143q0 -40 16.5 -52t61.5 -12z" />
<glyph unicode="&#x947;" horiz-adv-x="0" d="M-363 810q-31 0 -64 -10v118q36 7 87 6q107 -1 166 -91l110 -169h-151l-72 105q-27 41 -76 41z" />
<glyph unicode="&#x948;" horiz-adv-x="0" d="M-421 726q-30 0 -56 -7v100q31 9 72 9t86.5 -23.5t139.5 -103.5l-95 112q-30 35 -58.5 51t-70 16t-74.5 -10v105q27 9 83 9q126 0 200 -122l120 -198h-161q-116 62 -186 62z" />
<glyph unicode="&#x949;" horiz-adv-x="280" d="M296.5 784q-63.5 -51 -165 -51t-161.5 48t-60 141h136q0 -41 23 -65t67 -24t66 24t22 65h136q0 -87 -63.5 -138zM-30 559v112h340v-112h-100v-559h-140v559h-100z" />
<glyph unicode="&#x94a;" horiz-adv-x="280" d="M310 671v-112h-100v-559h-140v559h-100v112h100q-2 35 -13 47.5t-41 12.5h-27q-30 0 -50.5 1.5t-52 11.5t-51 27.5t-34.5 52.5t-15 84h143q0 -40 16.5 -52t61.5 -12h25q177 0 179 -173h99z" />
<glyph unicode="&#x94b;" horiz-adv-x="280" d="M310 671v-112h-100v-559h-140v559h-100v112h90l-67 98q-27 41 -76 41q-31 0 -64 -10v118q36 7 87 6q107 -1 166 -91l105 -162h99z" />
<glyph unicode="&#x94c;" d="M311 671v-112h-100v-559h-141v559h-100v112h65q-106 55 -173 55q-30 0 -56 -7v100q31 9 72 9t86.5 -23.5t139.5 -103.5l-95 112q-30 35 -58.5 51t-70 16t-74.5 -10v105q27 9 83 9q126 0 200 -122l116 -191h106z" />
<glyph unicode="&#x94d;" horiz-adv-x="0" d="M82 -241h-168l-120 176h143z" />
<glyph unicode="&#x950;" horiz-adv-x="1237" d="M873 562q-68 -51 -170.5 -51t-167 48.5t-64.5 140.5h136q0 -39 27.5 -64t72.5 -25t71.5 25t26.5 64h136q0 -87 -68 -138zM637 755q0 29 20.5 49.5t49.5 20.5t49.5 -20.5t20.5 -49.5t-20.5 -49.5t-49.5 -20.5t-49.5 20.5t-20.5 49.5zM619 60q-78 0 -120 69 q-22 -57 -80.5 -93.5t-131.5 -36.5q-107 0 -189 42v130q91 -54 182 -54q41 0 67 21t26 57q0 66 -91 66h-81v112h29q58 0 82.5 24.5t24.5 56.5t-19 50t-52 18q-83 0 -149 -48v118q27 20 73 32.5t93 12.5q89 0 142 -45.5t53 -122.5q0 -42 -21 -76t-57 -51q76 -12 113 -73 q14 -22 23.5 -35.5t27 -27t38 -13.5t43 20t48 55t55.5 80.5t46.5 66.5t44.5 49q52 52 125 52q92 0 148 -62t56 -163.5t-58 -172.5t-155 -71q-55 0 -101 18v120q37 -23 82.5 -23t69 34.5t23.5 85.5t-14.5 77t-41.5 26t-49.5 -25.5t-73.5 -101t-68 -99.5q-68 -99 -163 -99z " />
<glyph unicode="&#x951;" horiz-adv-x="0" d="M-187 971h109v-260h-109v260z" />
<glyph unicode="&#x952;" horiz-adv-x="0" d="M-55 -240h-447v109h447v-109z" />
<glyph unicode="&#x953;" horiz-adv-x="0" d="M-318 906l84 70l167 -200l-84 -70z" />
<glyph unicode="&#x954;" horiz-adv-x="0" d="M-56 976l84 -70l-167 -200l-84 70z" />
<glyph unicode="&#x958;" horiz-adv-x="809" d="M839 559h-364v-109q44 39 106 39q89 0 143.5 -55.5t54.5 -145t-62 -145t-159 -55.5q-15 0 -23 1v113q6 -1 16 -1q41 0 63.5 25t22.5 62.5t-21 63t-58.5 25.5t-60 -25.5t-22.5 -67.5v-284h-142v116q-43 -38 -106 -38q-89 0 -143.5 55.5t-54.5 145t62 145t159 55.5 q14 0 23 -1v-113q-6 1 -16 1q-41 0 -63.5 -25t-22.5 -62.5t21 -63t58.5 -25.5t60 25.5t22.5 67.5v276h-363v112h869v-112zM175 24q31 0 53.5 -22t22.5 -54t-22.5 -54t-53.5 -22t-53.5 22t-22.5 54t22.5 54t53.5 22z" />
<glyph unicode="&#x959;" horiz-adv-x="841" d="M871 671v-112h-100v-559h-142v132q-40 -26 -95 -26q-79 0 -131.5 52.5t-52.5 134.5t56 134.5t139 52.5q14 0 28 -2v-103h-10q-37 0 -59 -24t-22 -60.5t21.5 -58.5t53.5 -22q72 0 72 73v276h-286v-124q0 -68 -35 -113q-37 -49 -108 -62l203 -260h-170l-198 256v110h76 q92 0 92 77v116h-233v112h901zM95 14q31 0 53.5 -22t22.5 -54t-22.5 -54t-53.5 -22t-53.5 22t-22.5 54t22.5 54t53.5 22z" />
<glyph unicode="&#x95a;" horiz-adv-x="585" d="M-30 671h645v-112h-100v-559h-140v559h-111v-214q0 -72 -40.5 -107t-96.5 -35t-97 14v110q22 -12 49 -12q44 0 44 46v198h-153v112zM165 94q31 0 53.5 -22t22.5 -54t-22.5 -54t-53.5 -22t-53.5 22t-22.5 54t22.5 54t53.5 22z" />
<glyph unicode="&#x95b;" horiz-adv-x="658" d="M-30 671h719v-112h-101v-559h-142v348h-141q58 -38 58 -119t-56 -127.5t-138 -46.5t-139 21v124q47 -25 101 -25q99 0 99 82q0 43 -36 67t-107 24v115h359v96h-476v112zM173 -6q31 0 53.5 -22t22.5 -54t-22.5 -54t-53.5 -22t-53.5 22t-22.5 54t22.5 54t53.5 22z" />
<glyph unicode="&#x95c;" horiz-adv-x="534" d="M433 559v-152h-1l1 -3h-209q-51 0 -51 -39q0 -24 27 -30.5t89 -6.5q200 0 200 -153q-2 -76 -65.5 -125.5t-179 -49.5t-209.5 52v130q106 -65 217 -65q47 0 72 14t25 38.5t-23 33t-73 8.5t-84.5 7t-66 23t-50 47t-18.5 74q0 77 56.5 115.5t134.5 38.5h68v43h-323v112h594 v-112h-131zM245 -56q31 0 53.5 -22t22.5 -54t-22.5 -54t-53.5 -22t-53.5 22t-22.5 54t22.5 54t53.5 22z" />
<glyph unicode="&#x95d;" horiz-adv-x="564" d="M266 299q44 23 109 23t109.5 -37t44.5 -108.5t-61.5 -119.5t-175 -48t-188 69.5t-74.5 179.5t79 168t206 60h9v73h-354v112h624v-112h-130v-192q-47 11 -99.5 11t-93 -11t-69.5 -41t-29 -78.5t37 -87t96 -38.5q38 0 63.5 15t25.5 39q0 46 -57 46q-42 0 -72 -22v99z M211 -132q0 32 22.5 54t53.5 22t53.5 -22t22.5 -54t-22.5 -54t-53.5 -22t-53.5 22t-22.5 54z" />
<glyph unicode="&#x95e;" horiz-adv-x="844" d="M874 559h-367v-100q48 41 117 41q87 0 136 -56.5t49 -138.5q0 -100 -62 -152.5t-156 -52.5q-17 0 -25 1v113q6 -1 16 -1q86 0 86 91q0 35 -19.5 59.5t-55.5 24.5t-61 -24.5t-25 -68.5v-295h-142v212q-48 -41 -117 -41q-89 0 -138.5 50t-49.5 154v184h-90v112h904v-112z M365 376v183h-163v-190q0 -86 74 -86q39 0 64 24.5t25 68.5zM145 104q31 0 53.5 -22t22.5 -54t-22.5 -54t-53.5 -22t-53.5 22t-22.5 54t22.5 54t53.5 22z" />
<glyph unicode="&#x95f;" horiz-adv-x="634" d="M72 -19q0 31 22 53.5t54 22.5t54 -22.5t22 -53.5t-22 -53.5t-54 -22.5t-54 22.5t-22 53.5zM300 230q57 0 90 33t33 99v197h-130q21 -32 21 -91.5t-36.5 -101t-94.5 -60.5q23 -76 117 -76zM276 106q-99 0 -170.5 72t-86.5 198q156 22 156 104q0 50 -29 79h-176v112h694 v-112h-100v-559h-141v170q-17 -29 -57 -46.5t-90 -17.5z" />
<glyph unicode="&#x960;" horiz-adv-x="808" d="M482 559v-180l69 35v84h135v-43q0 -68 30 -115q12 -20 25 -38q31 -43 33 -84q4 -84 -43 -122.5t-133 -38.5q-29 0 -54 5l2 118q17 -5 33 -5q61 -2 61 50q0 18 -10 30t-20.5 25t-16.5 20l-111 -54v-246h-137v204l-300 -146v138l166 77q-9 102 -101 102q-33 0 -66 -14v123 q36 12 80 12q170 0 196 -172l25 12v223h-375v112h868v-112h-356z" />
<glyph unicode="&#x961;" horiz-adv-x="845" d="M727 559v-241q0 -39 -17.5 -72t-39.5 -52q-56 -50 -56 -86q0 -17 14.5 -27t37.5 -10h59v-108l2 -4h-85q-22 0 -33.5 -12.5t-11.5 -32.5t13.5 -34.5t41.5 -14.5t106 32v-123q-55 -22 -112 -22q-85 0 -138.5 45.5t-53.5 114.5t54 110q-34 34 -34 85q0 31 17.5 58t38 44 t38 45.5t17.5 63.5v91h-42q-46 0 -66.5 -24t-20.5 -81v-76h-141v76q0 107 -66 107q-38 0 -59.5 -29.5t-21.5 -86.5q0 -157 162 -188l-2 -116q-141 23 -222 101t-81 205q0 99 58 162t155 63t148 -49q47 47 152 47h47v39h-615v112h863v-112h-106z" />
<glyph unicode="&#x964;" horiz-adv-x="477" d="M215 0v671h142v-671h-142z" />
<glyph unicode="&#x965;" horiz-adv-x="727" d="M465 0v671h142v-671h-142zM215 0v671h142v-671h-142z" />
<glyph unicode="&#x966;" horiz-adv-x="547" d="M184 330q0 -208 89.5 -208t89.5 208t-89.5 208t-89.5 -208zM95 83.5q-60 91.5 -60 247t60 246.5t178 91t178.5 -91t60.5 -246t-60.5 -247t-178.5 -92t-178 91.5z" />
<glyph unicode="&#x967;" horiz-adv-x="410" d="M350 654v-654h-145v497l-165 -99v149l184 107h126z" />
<glyph unicode="&#x968;" horiz-adv-x="516" d="M476 124v-124h-436v113q108 74 190.5 164t82.5 159q0 42 -25 66.5t-76 24.5q-85 0 -161 -63v141q33 24 86 41t104 17q102 0 162.5 -53.5t60.5 -149.5q0 -173 -220 -336h232z" />
<glyph unicode="&#x969;" horiz-adv-x="493" d="M215 663q106 0 168 -50.5t62 -131.5q0 -111 -101 -153q114 -27 114 -148q0 -84 -63.5 -134.5t-174 -50.5t-180.5 34v140q80 -44 165 -44q49 0 76.5 21t27.5 53q0 73 -135 73h-35v120h35q53 0 87 18t34 54q0 69 -90 69q-69 0 -139 -43v136q74 37 149 37z" />
<glyph unicode="&#x96a;" horiz-adv-x="577" d="M547 263v-124h-80v-139h-145v139h-287v124l200 393h232v-393h80zM322 263v296l-144 -296h144z" />
<glyph unicode="&#x96b;" horiz-adv-x="515" d="M215 532v-111q23 3 44 3q107 0 164 -55t57 -153.5t-67.5 -160t-184 -61.5t-183.5 35v138q68 -42 152 -42q134 0 134 96q0 36 -27.5 57t-93.5 21t-137 -33v390h367v-124h-225z" />
<glyph unicode="&#x96c;" horiz-adv-x="557" d="M380 536q-71 0 -116.5 -43.5t-61.5 -116.5q54 46 134.5 46t133 -57t52.5 -154.5t-62.5 -164t-177 -66.5t-176 86.5t-61.5 232.5q0 167 91.5 267t231.5 100q53 0 103 -16v-135q-39 21 -91 21zM290 110q39 0 61 27t22 70t-21.5 67.5t-60.5 24.5q-54 0 -95 -43 q11 -146 94 -146z" />
<glyph unicode="&#x96d;" horiz-adv-x="490" d="M25 655h440v-124l-254 -531h-154l255 531h-287v124z" />
<glyph unicode="&#x96e;" horiz-adv-x="545" d="M510 182q0 -86 -66.5 -139t-174 -53t-171 50.5t-63.5 136.5q0 106 95 153q-85 49 -85 141t63.5 143.5t163.5 51.5t163.5 -49t63.5 -142.5t-82 -141.5q93 -43 93 -151zM270 550q-40 0 -59 -22.5t-19 -57.5t23 -56t57.5 -21t57.5 21t23 59q0 77 -83 77zM202.5 128 q21.5 -22 68 -22t70 22.5t23.5 56.5t-24.5 57t-69 23t-67 -25t-22.5 -57.5t21.5 -54.5z" />
<glyph unicode="&#x96f;" horiz-adv-x="553" d="M190 124q78 0 121 35.5t56 111.5q-43 -43 -130.5 -43t-142 56.5t-54.5 152.5t61.5 161t172.5 65t177.5 -84.5t66.5 -230.5q0 -179 -85 -267.5t-227 -88.5q-68 0 -119 19v138q52 -25 103 -25zM274 346q60 0 97 45q-12 142 -96 142q-39 0 -62.5 -25t-23.5 -67.5t23 -68.5 t62 -26z" />
<glyph unicode="&#x970;" horiz-adv-x="502" d="M180 320q0 -30 21.5 -51.5t51.5 -21.5t51.5 21.5t21.5 51.5t-21.5 51.5t-51.5 21.5t-51.5 -21.5t-21.5 -51.5zM63 320q0 79 55.5 134.5t134.5 55.5t134.5 -55.5t55.5 -134.5t-55.5 -134.5t-134.5 -55.5t-134.5 55.5t-55.5 134.5z" />
<glyph unicode="&#x97d;" horiz-adv-x="617" d="M111 681q69 32 164.5 32t152 -49.5t56.5 -134.5q0 -71 -58 -143l-48 -58q-57 -71 -57 -142v-186h-139v202q0 45 16 86t38.5 70t45.5 54q54 62 54 98.5t-21.5 58.5t-63.5 22q-70 0 -140 -46v136z" />
<glyph unicode="&#x1e80;" horiz-adv-x="971" d="M431 664h114q110 -395 132 -496q13 89 56 259l62 247h157l-180 -674h-172q-103 372 -112 426q-3 -41 -54 -213l-62 -213h-172l-181 674h162q82 -328 95 -392.5t20 -113.5q16 73 135 496zM460 898l86 -177h-121l-111 177h146z" />
<glyph unicode="&#x1e81;" horiz-adv-x="806" d="M168 0l-163 507h151q77 -292 87 -369q7 60 49 202l49 167h126q83 -289 96 -369q7 59 47 202l47 167h144l-162 -507h-150q-73 277 -85 354q-10 -67 -42 -188l-44 -166h-150zM375 731l86 -177h-121l-111 177h146z" />
<glyph unicode="&#x1e82;" horiz-adv-x="971" d="M443 721l86 177h146l-111 -177h-121zM431 664h114q110 -395 132 -496q13 89 56 259l62 247h157l-180 -674h-172q-103 372 -112 426q-3 -41 -54 -213l-62 -213h-172l-181 674h162q82 -328 95 -392.5t20 -113.5q16 73 135 496z" />
<glyph unicode="&#x1e83;" horiz-adv-x="806" d="M354 553l86 177h146l-111 -177h-121zM168 0l-163 507h151q77 -292 87 -369q7 60 49 202l49 167h126q83 -289 96 -369q7 59 47 202l47 167h144l-162 -507h-150q-73 277 -85 354q-10 -67 -42 -188l-44 -166h-150z" />
<glyph unicode="&#x1e84;" horiz-adv-x="971" d="M295.5 751.5q-23.5 23.5 -23.5 58t23.5 58t59 23.5t59 -23.5t23.5 -58t-23.5 -58t-59 -23.5t-59 23.5zM563.5 751.5q-23.5 23.5 -23.5 58t23.5 58t59 23.5t59.5 -23.5t24 -58t-24 -58t-59.5 -23.5t-59 23.5zM431 664h114q110 -395 132 -496q13 89 56 259l62 247h157 l-180 -674h-172q-103 372 -112 426q-3 -41 -54 -213l-62 -213h-172l-181 674h162q82 -328 95 -392.5t20 -113.5q16 73 135 496z" />
<glyph unicode="&#x1e85;" horiz-adv-x="806" d="M210.5 583.5q-23.5 23.5 -23.5 58t23.5 58t59 23.5t59 -23.5t23.5 -58t-23.5 -58t-59 -23.5t-59 23.5zM478.5 583.5q-23.5 23.5 -23.5 58t23.5 58t59 23.5t59.5 -23.5t24 -58t-24 -58t-59.5 -23.5t-59 23.5zM168 0l-163 507h151q77 -292 87 -369q7 60 49 202l49 167h126 q83 -289 96 -369q7 59 47 202l47 167h144l-162 -507h-150q-73 277 -85 354q-10 -67 -42 -188l-44 -166h-150z" />
<glyph unicode="&#x1ef2;" horiz-adv-x="643" d="M397 0h-154v247l-230 427h180q101 -242 126 -314q10 45 88 216l44 98h179l-233 -426v-248zM386 721h-121l-111 177h146z" />
<glyph unicode="&#x1ef3;" horiz-adv-x="532" d="M103 -198q-31 0 -56 5v116q16 -4 34 -4q83 0 120 89l-196 499h159q97 -278 109 -335q13 49 104 335h150l-183 -492q-79 -213 -241 -213zM248 731l86 -177h-121l-111 177h146z" />
<glyph unicode="&#x200b;" horiz-adv-x="0" />
<glyph unicode="&#x200c;" horiz-adv-x="0" d="M24 -230h-47v1041h47v-1041z" />
<glyph unicode="&#x200d;" horiz-adv-x="0" d="M24 -230h-47v865l-69 -73l-33 33l93 93l-95 95l33 33l95 -95l96 95l32 -32l-96 -96l96 -95l-33 -33l-72 75v-865z" />
<glyph unicode="&#x2013;" horiz-adv-x="555" d="M45 215v107h465v-107h-465z" />
<glyph unicode="&#x2014;" horiz-adv-x="836" d="M45 218v107h746v-107h-746z" />
<glyph unicode="&#x2018;" horiz-adv-x="267" d="M289 694l-101 -261h-161l136 261h126z" />
<glyph unicode="&#x2019;" horiz-adv-x="267" d="M28 433l101 261h161l-136 -261h-126z" />
<glyph unicode="&#x201a;" horiz-adv-x="267" d="M-7 -127l101 261h161l-136 -261h-126z" />
<glyph unicode="&#x201c;" horiz-adv-x="452" d="M474 694l-96 -261h-146l121 261h121zM289 694l-104 -261h-158l141 261h121z" />
<glyph unicode="&#x201d;" horiz-adv-x="452" d="M28 433l96 261h146l-121 -261h-121zM213 433l104 261h158l-141 -261h-121z" />
<glyph unicode="&#x201e;" horiz-adv-x="452" d="M-2 -127l96 261h146l-121 -261h-121zM183 -127l104 261h158l-141 -261h-121z" />
<glyph unicode="&#x2020;" horiz-adv-x="559" d="M529 523v-118h-185v-405h-130v405h-184v118h184v151h130v-151h185z" />
<glyph unicode="&#x2021;" horiz-adv-x="589" d="M544 405h-185v-136h185v-118h-185v-151h-130v151h-184v118h184v136h-184v118h184v151h130v-151h185v-118z" />
<glyph unicode="&#x2022;" horiz-adv-x="425" d="M80 356q0 57 37.5 95t94 38t95 -38.5t38.5 -94.5t-38 -94.5t-94.5 -38.5t-94.5 38t-38 95z" />
<glyph unicode="&#x2026;" horiz-adv-x="938" d="M700 81q0 37 26 63t63 26t63 -26t26 -63t-26 -63t-63 -26t-63 26t-26 63zM380 81q0 37 26 63t63 26t63 -26t26 -63t-26 -63t-63 -26t-63 26t-26 63zM60 81q0 37 26 63t63 26t63 -26t26 -63t-26 -63t-63 -26t-63 26t-26 63z" />
<glyph unicode="&#x2030;" horiz-adv-x="1412" d="M1105 182q0 -30 21.5 -51.5t51.5 -21.5t51.5 21.5t21.5 51.5t-21.5 51.5t-51.5 21.5t-51.5 -21.5t-21.5 -51.5zM988 182q0 79 55.5 134.5t134.5 55.5t134.5 -55.5t55.5 -134.5t-55.5 -134.5t-134.5 -55.5t-134.5 55.5t-55.5 134.5zM665 182q0 -30 21.5 -51.5t51.5 -21.5 t51.5 21.5t21.5 51.5t-21.5 51.5t-51.5 21.5t-51.5 -21.5t-21.5 -51.5zM162 532q0 -30 21.5 -51.5t51.5 -21.5t51.5 21.5t21.5 51.5t-21.5 51.5t-51.5 21.5t-51.5 -21.5t-21.5 -51.5zM45 532q0 79 55.5 134.5t134.5 55.5t134.5 -55.5t55.5 -134.5t-55.5 -134.5t-134.5 -55.5 t-134.5 55.5t-55.5 134.5zM548 182q0 79 55.5 134.5t134.5 55.5t134.5 -55.5t55.5 -134.5t-55.5 -134.5t-134.5 -55.5t-134.5 55.5t-55.5 134.5zM227 -1l379 708h132l-380 -708h-131z" />
<glyph unicode="&#x2039;" horiz-adv-x="371" d="M330 415l-146 -162l146 -162h-152l-152 162l152 162h152z" />
<glyph unicode="&#x203a;" horiz-adv-x="371" d="M193 415l152 -162l-152 -162h-152l146 162l-146 162h152z" />
<glyph unicode="&#x2044;" horiz-adv-x="264" d="M360 711l-428 -711h-109l429 711h108z" />
<glyph unicode="&#x2074;" horiz-adv-x="408" d="M373 567v-82h-53v-92h-96v92h-189v82l132 259h153v-259h53zM224 567v199l-97 -199h97z" />
<glyph unicode="&#x20ac;" horiz-adv-x="622" d="M445 526q-98 0 -146 -81h178v-90h-206q-2 -24 -2 -39.5t1 -24.5h207v-90h-179q45 -75 142 -75q82 0 142 49v-148q-64 -35 -163.5 -35t-177 56.5t-108.5 152.5h-93v90h76q-1 10 -1 31.5t1 32.5h-76v90h92q31 104 110 161t178 57t162 -38v-147q-59 48 -137 48z" />
<glyph unicode="&#x20b9;" horiz-adv-x="559" d="M518 565h-155q25 -28 37 -61h118v-109h-108q-11 -71 -56.5 -115t-123.5 -57l191 -223h-184l-177 219v115h87q93 0 113 61h-200v109h194q-30 61 -110 61h-84v109h458v-109z" />
<glyph unicode="&#x2122;" horiz-adv-x="753" d="M10 592v82h261v-82h-83v-261h-94v261h-84zM633 570q-10 -56 -38 -128l-40 -107h-78q-62 170 -75 235q2 -16 4.5 -58t-1.5 -70l-9 -111h-91l29 343h99q72 -186 82 -232q11 42 85 232h99l35 -343h-91q-13 146 -13 176.5t3 62.5z" />
<glyph unicode="&#x2126;" horiz-adv-x="790" d="M745 124v-124h-305v124q55 15 82.5 74.5t27.5 150t-39.5 143.5t-113.5 53t-113.5 -53t-39.5 -143t26 -149.5t80 -75.5v-124h-305v124h129q-95 79 -95 227.5t84.5 241t233.5 92.5t233.5 -92t84.5 -249q0 -139 -97 -220h127z" />
<glyph unicode="&#x2202;" horiz-adv-x="552" d="M502 284q0 -140 -62 -217t-173 -77t-171.5 64t-60.5 162t59.5 157.5t144.5 59.5q63 0 109 -31q-57 154 -247 272h201q91 -70 145.5 -180t54.5 -210zM267 120q97 0 102 154q-38 35 -98 35q-38 0 -62.5 -26.5t-24.5 -69.5t21.5 -68t61.5 -25z" />
<glyph unicode="&#x2206;" horiz-adv-x="681" d="M646 0h-611v101l210 573h194l207 -573v-101zM198 124h284l-142 438z" />
<glyph unicode="&#x220f;" horiz-adv-x="647" d="M582 674v-854h-155v723h-187v-500q0 -229 -182 -229q-36 0 -73 13v133q24 -13 50.5 -13t38.5 22.5t12 72.5v632h496z" />
<glyph unicode="&#x2211;" horiz-adv-x="484" d="M494 674v-124h-302l142 -306l-143 -320h303v-124h-464v124l146 320l-146 306v124h464z" />
<glyph unicode="&#x2212;" horiz-adv-x="589" d="M45 275v129h499v-129h-499z" />
<glyph unicode="&#x2215;" horiz-adv-x="833" d="M660 711l-428 -711h-109l429 711h108z" />
<glyph unicode="&#x2219;" horiz-adv-x="316" d="M69 337q0 37 26 63t63 26t63 -26t26 -63t-26 -63t-63 -26t-63 26t-26 63z" />
<glyph unicode="&#x221a;" horiz-adv-x="825" d="M283 461l82 -246q52 -155 74 -265q31 156 65 265l213 692h154l-349 -1097h-170l-194 538h-131l30 113h226z" />
<glyph unicode="&#x221e;" horiz-adv-x="830" d="M657 344q0 27 -17 45t-44.5 18t-49.5 -13.5t-31 -24t-24 -30.5q20 -19 31 -29t30.5 -20t37.5 -10q67 0 67 64zM231 165q-90 0 -138 44.5t-48 126.5t52 130.5t144 48.5t173 -90q81 93 186 93q88 0 136.5 -45.5t48.5 -126t-52 -129.5t-137 -49q-103 0 -181 91 q-25 -28 -42.5 -43.5t-56.5 -33t-85 -17.5zM172 339q0 -30 18 -46.5t50 -16.5q52 0 99 68q-59 59 -95 59t-54 -17t-18 -47z" />
<glyph unicode="&#x2248;" horiz-adv-x="589" d="M407 360q-52 0 -110.5 22.5t-89 22.5t-51 -13t-43.5 -40l-92 73q71 99 157 99q60 0 119.5 -22.5t85.5 -22.5t46 13t44 41l92 -74q-69 -99 -158 -99zM407 156q-52 0 -110.5 22.5t-89 22.5t-51 -13t-43.5 -40l-92 73q71 99 157 99q60 0 119.5 -22.5t85.5 -22.5t46 13t44 41 l92 -74q-69 -99 -158 -99z" />
<glyph unicode="&#x2260;" horiz-adv-x="589" d="M544 398h-185l-54 -116h239v-116h-294l-37 -80h-75l37 80h-130v116h185l54 116h-239v116h294l37 80h75l-37 -80h130v-116z" />
<glyph unicode="&#x2264;" horiz-adv-x="584" d="M539 595v-126l-396 -50l396 -50v-126l-499 86v180zM40 83v116h499v-116h-499z" />
<glyph unicode="&#x2265;" horiz-adv-x="584" d="M45 595l499 -86v-180l-499 -86v126l396 50l-396 50v126zM45 83v116h499v-116h-499z" />
<glyph unicode="&#x25ca;" horiz-adv-x="604" d="M376 674l199 -337l-199 -337h-150l-197 337l197 337h150zM302 113q27 60 128 224q-89 144 -128 224q-28 -61 -125 -224q88 -147 125 -224z" />
<glyph unicode="&#x25cc;" horiz-adv-x="701" d="M285 571q0 19 12.5 31.5t31.5 12.5t31.5 -12.5t12.5 -31.5t-12.5 -31.5t-31.5 -12.5t-31.5 12.5t-12.5 31.5zM424 525q-13 13 -13 32t12.5 31.5t32 12.5t31.5 -12.5t12 -31.5t-12.5 -32t-31 -13t-31.5 13zM506 488q0 19 12.5 32t31.5 13t31.5 -12.5t12.5 -32t-12.5 -32 t-31.5 -12.5t-31.5 12.5t-12.5 31.5zM556 370q0 20 12 32t31.5 12t32 -12.5t12.5 -31.5t-12.5 -31.5t-32 -12.5t-31.5 12t-12 32zM559 204.5q-13 12.5 -13 32t13 32t31.5 12.5t31 -13t12.5 -32t-12.5 -31.5t-31 -12.5t-31.5 12.5zM473 138q0 19 12.5 31.5t31.5 12.5 t32 -12.5t13 -31.5t-13 -31.5t-32 -12.5t-31.5 12.5t-12.5 31.5zM352 85q0 19 12 31.5t32 12.5t32.5 -12.5t12.5 -31.5t-12.5 -31.5t-32.5 -12.5t-32 12.5t-12 31.5zM238 68q-13 13 -13 32t13 32t32 13t31.5 -13t12.5 -32t-12.5 -32t-31.5 -13t-32 13zM136 144 q-12 12 -12 31.5t12.5 32t31.5 12.5t31.5 -12.5t12.5 -31.5t-12.5 -31.5t-32 -12.5t-31.5 12zM72 292q0 19 12.5 32t31.5 13t31.5 -12.5t12.5 -32t-12.5 -31.5t-31.5 -12t-31.5 12t-12.5 31zM85 418q0 19 13 31.5t32 12.5t32 -12.5t13 -31.5t-13 -31.5t-32 -12.5t-32 12.5 t-13 31.5zM179.5 495.5q-12.5 12.5 -12.5 32t12.5 32t31.5 12.5t31.5 -12.5t12.5 -32t-12.5 -32t-31.5 -12.5t-31.5 12.5z" />
<glyph unicode="&#x25fc;" horiz-adv-x="505" d="M0 505h505v-505h-505v505z" />
<glyph unicode="&#xf6c3;" horiz-adv-x="483" d="M139 -262l71 211h151l-116 -211h-106z" />
<glyph unicode="&#xfb00;" horiz-adv-x="636" d="M656 592q-27 11 -58 11q-67 0 -67 -77v-19h95v-107h-95v-400h-145v400h-145v-400h-145v400h-66v107h66v19q0 92 51.5 143t140.5 51t168 -35q49 35 124 35q47 0 76 -10v-118zM386 507v19q0 35 7 62q-51 15 -83.5 15t-50.5 -17t-18 -60v-19h145z" />
<glyph unicode="&#xfb01;" horiz-adv-x="575" d="M532 507v-507h-146v400h-145v-400h-145v400h-66v107h66v19q0 92 51.5 143t146 51t185.5 -42v-118q-95 43 -165 43q-37 0 -55 -17t-18 -60v-19h291z" />
<glyph unicode="&#xfb02;" horiz-adv-x="593" d="M96 507v19q0 92 51.5 143t152 51t233.5 -63v-657h-146v593q-40 10 -74 10t-53 -16t-19 -61v-19h95v-107h-95v-400h-145v400h-66v107h66z" />
<glyph unicode="&#xfb03;" horiz-adv-x="970" d="M822 507v-507h-146v400h-145v-400h-145v400h-145v-400h-145v400h-66v107h66v19q0 92 51.5 143t140.5 51t168 -35q49 35 135.5 35t177.5 -42v-118q-95 43 -165 43q-37 0 -55 -17t-18 -60v-19h291zM386 507v19q0 35 7 62q-51 15 -83.5 15t-50.5 -17t-18 -60v-19h145z" />
<glyph unicode="&#xfb04;" horiz-adv-x="883" d="M96 507v19q0 92 51.5 143t140.5 51t168 -35q49 35 124 35q110 0 243 -63v-657h-146v593q-40 10 -74 10t-53 -16t-19 -61v-19h95v-107h-95v-400h-145v400h-145v-400h-145v400h-66v107h66zM386 507v19q0 35 7 62q-51 15 -83.5 15t-50.5 -17t-18 -60v-19h145z" />
<glyph horiz-adv-x="1734" d="M1396 237v196h207v-196h-207zM1396 475v196h207v-196h-207zM1146 0v671h208v-671h-208zM896 475v196h208v-196h-208zM647 0v671h207v-671h-207zM397 475v196h207v-196h-207zM147 0v671h207v-671h-207z" />
<glyph horiz-adv-x="546" d="M475 559v-109q44 39 106 39q98 0 153 -66l-101 -103q-16 57 -78 57q-35 0 -57.5 -25.5t-22.5 -67.5v-284h-142v116q-43 -38 -106 -38q-89 0 -143.5 55.5t-54.5 145t62 145t159 55.5q14 0 23 -1v-113q-6 1 -16 1q-41 0 -63.5 -25t-22.5 -62.5t21 -63t58.5 -25.5t60 25.5 t22.5 67.5v276h-363v112h606v-112h-101z" />
<glyph horiz-adv-x="628" d="M493 210q-60 0 -100 39t-40 103.5t50 109t132 44.5q104 0 160.5 -59.5t56.5 -144.5q0 -127 -99.5 -205t-234.5 -78t-229 70.5t-144 196.5v110h69q34 0 49 16.5t15 54.5v92h-208v112h688v-112h-340v-122q0 -111 -84 -140q-16 -6 -26 -7q22 -69 83.5 -108t141.5 -39 t135.5 40.5t55.5 117.5q0 46 -22.5 73.5t-64.5 27.5q-24 0 -39 -14.5t-15 -35t12.5 -32t26 -11.5t22.5 3v-94q-26 -8 -51 -8z" />
<glyph horiz-adv-x="324" d="M354 671v-112h-90v-214q0 -72 -40.5 -107t-96.5 -35t-97 14v110q22 -12 49 -12q44 0 44 46v198h-153v112h384z" />
<glyph horiz-adv-x="349" d="M252 69q-93 0 -155.5 45t-62.5 123q0 60 42.5 98t114.5 43q-68 2 -105.5 29.5t-37.5 73.5t30 78h-108v112h409v-112h-158q-31 -26 -31 -61q0 -61 89 -61h40v-118h-48q-44 0 -69.5 -18.5t-25.5 -50t25.5 -48t66.5 -16.5q98 0 144 75l38 -105q-71 -87 -198 -87z" />
<glyph horiz-adv-x="655" d="M-30 671h715v-112h-252v-152h-1l1 -3h-209q-51 0 -51 -39q0 -24 27 -30.5t89 -6.5q200 0 200 -153q-2 -76 -65.5 -125.5t-179 -49.5t-209.5 52v130q106 -65 217 -65q47 0 72 14t25 38.5t-23 33t-73 8.5t-84.5 7t-66 23t-50 47t-18.5 74q0 77 56.5 115.5t134.5 38.5h68v43 h-323v112zM552 435q32 0 54 -22.5t22 -53.5t-22 -53.5t-54 -22.5t-54 22.5t-22 53.5t22 53.5t54 22.5zM204 -65h143l145 -176h-168z" />
<glyph horiz-adv-x="429" d="M473 150q-76 -59 -179 -59t-159 42.5t-56 116t55 109.5h-114v115h359v-115q-165 0 -165 -86q0 -32 25 -50.5t68 -18.5q70 0 122 42t76 110l64 -70q-20 -77 -96 -136zM459 671v-112h-489v112h489z" />
<glyph horiz-adv-x="657" d="M687 559h-449q-42 -33 -42 -82q0 -30 19 -50t53 -20h37v-118h-37q-81 0 -81 -60q0 -29 31.5 -46.5t81.5 -17.5q81 0 130 39.5t49 105.5q0 41 -22 62.5t-54.5 21.5t-50.5 -5v111q29 8 72 8q88 0 143 -49t55 -137q0 -124 -91 -198.5t-232 -74.5q-106 0 -180 45.5t-74 127.5 q0 56 37.5 89t105.5 37q-64 1 -98.5 37.5t-34.5 87.5t33 86h-118v112h717v-112z" />
<glyph horiz-adv-x="420" d="M575 463v-115h-270q58 -38 58 -119t-56 -127.5t-138 -46.5t-139 21v124q47 -25 101 -25q99 0 99 82q0 43 -36 67t-107 24v115h488zM450 671v-112h-480v112h480z" />
<glyph horiz-adv-x="529" d="M686 336v-107h-203q8 -23 8 -58q0 -76 -51.5 -122.5t-126.5 -46.5t-129 31v-84h-140v238h130q17 -37 47 -58.5t62.5 -21.5t50.5 14.5t18 44t-23 40.5t-64 11q-207 0 -207 143q0 79 55.5 116.5t144.5 37.5h56v45h-344v112h589v-112h-105v-154h-1l1 -3h-190q-63 0 -63 -34 q0 -32 64 -32h421z" />
<glyph horiz-adv-x="478" d="M610 346v-112h-191q-14 -78 -75 -126.5t-156 -54.5q-88 0 -158 37v127q72 -43 147 -43q51 0 77.5 27.5t26.5 71t-24.5 68.5t-69 25t-88.5 -19v119q42 17 113.5 17t126 -36t73.5 -101h198zM508 671v-112h-538v112h538z" />
<glyph horiz-adv-x="520" d="M542 -232h-168l-120 176h143zM453 559v-202q-32 7 -105.5 7t-117 -32t-43.5 -87.5t42.5 -85t112.5 -29.5q39 0 81 12.5t66 28.5v-127q-68 -35 -158 -35q-135 0 -211 64t-76 177q0 93 68 157.5t191 68.5h10v83h-343v112h580v-112h-97z" />
<glyph horiz-adv-x="575" d="M605 559h-223v-91q73 -20 116 -71.5t43 -127.5q0 -94 -67.5 -152t-182 -59t-185.5 56.5t-71 152t59 147t147 63.5v82h-271v112h635v-112zM209.5 196q32.5 -27 82 -27t78.5 27t29 74.5t-29.5 72.5t-79.5 25.5t-81.5 -24t-31.5 -73t32.5 -75.5zM224 -8h143l145 -176h-168z " />
<glyph horiz-adv-x="534" d="M433 559v-152h-1l1 -3h-209q-51 0 -51 -39q0 -24 27 -30.5t89 -6.5q200 0 200 -153q-2 -76 -65.5 -125.5t-179 -49.5t-209.5 52v130q106 -65 217 -65q47 0 72 14t25 38.5t-23 33t-73 8.5t-84.5 7t-66 23t-50 47t-18.5 74q0 77 56.5 115.5t134.5 38.5h68v43h-323v112h594 v-112h-131zM194 -65h143l145 -176h-168z" />
<glyph horiz-adv-x="564" d="M522 -232h-168l-120 176h143zM266 299q44 23 109 23t109.5 -37t44.5 -108.5t-61.5 -119.5t-175 -48t-188 69.5t-74.5 179.5t79 168t206 60h9v73h-354v112h624v-112h-130v-192q-47 11 -99.5 11t-93 -11t-69.5 -41t-29 -78.5t37 -87t96 -38.5q38 0 63.5 15t25.5 39 q0 46 -57 46q-42 0 -72 -22v99z" />
<glyph horiz-adv-x="486" d="M515 671v-112h-89v-205q0 -96 -53 -146.5t-147.5 -50.5t-145 49t-50.5 145v208h-60v112h545zM287 342v217h-117v-218q0 -66 58.5 -66t58.5 67z" />
<glyph horiz-adv-x="396" d="M-30 559v112h456v-112h-456zM546 360h-220q-68 0 -103.5 -30.5t-35.5 -88.5q0 -122 105 -122q11 0 17 1v-117q-24 -2 -40 -2q-106 0 -165 66.5t-59 173.5t70 170t207 63h224v-114z" />
<glyph horiz-adv-x="468" d="M409 507q0 -147 -227 -218q15 -37 56.5 -57.5t90.5 -20.5q121 0 215 114l66 -97q-61 -65 -127.5 -101.5t-153.5 -36.5q-125 0 -210 69.5t-99 206.5q141 36 199.5 66.5t58.5 81t-43 50.5q-45 0 -45 -52q0 -28 12 -55h-134q-11 32 -11 67q0 68 46.5 112.5t127.5 44.5 t129.5 -46t48.5 -128z" />
<glyph horiz-adv-x="579" d="M-30 671h639v-112h-112v-176h-208q-53 0 -84.5 -28t-31.5 -75.5t27 -74t71 -26.5q94 0 110 100h138v-289h-140v125q-18 -26 -57.5 -39.5t-75.5 -13.5q-98 0 -157 61.5t-59 156.5t65.5 155t187.5 60h71v64h-384v112zM667 -251h-168l-120 176h143z" />
<glyph horiz-adv-x="422" d="M441.5 106q-76.5 -37 -175 -37t-163 44.5t-64.5 123.5q0 59 41.5 92.5t115.5 38.5q-68 2 -105.5 29.5t-37.5 82t44 79.5h-127v112h325v-112h-3q-97 0 -97 -71q0 -61 89 -61h40v-118h-48q-95 0 -95 -58q0 -32 27.5 -48.5t85.5 -16.5t110 29t109 100l51 -109 q-46 -63 -122.5 -100z" />
<glyph horiz-adv-x="316" d="M130 428h298v-112h-236q-18 0 -26 -9t-8 -37t8 -68h-112q-34 57 -34 130q0 45 28 70.5t82 25.5zM-30 559v112h376v-112h-376z" />
<glyph horiz-adv-x="350" d="M250 170q-190 0 -190 205v184h-90v112h410v-112h-178v-190q0 -86 74 -86q47 0 83.5 25.5t55.5 67.5l71 -68q-35 -64 -96 -101t-140 -37z" />
<glyph horiz-adv-x="649" d="M507 559v-100q48 41 117 41q124 0 180 -120l-110 -72q-9 34 -34.5 57t-64 23t-63.5 -24.5t-25 -68.5v-295h-142v212q-48 -41 -117 -41q-89 0 -138.5 50t-49.5 154v184h-90v112h709v-112h-172zM202 559v-190q0 -86 74 -86q39 0 64 24.5t25 68.5v183h-163z" />
<glyph horiz-adv-x="395" d="M435.5 119.5q-67.5 -45.5 -164 -45.5t-166.5 61t-70 156t63.5 157.5t168.5 62.5q46 0 81 -8v-122q-30 10 -58.5 10t-45.5 -5l171 -142q25 28 45 62l78 -64q-35 -77 -102.5 -122.5zM193 346q-15 -24 -15 -64.5t30 -69t75 -28.5t80 19zM425 671v-112h-455v112h455z" />
<glyph horiz-adv-x="359" d="M453 378v-111h-223v-126h-122l-36 77q-27 57 -27 88q0 52 46 65v143q0 47 -46 47q-26 0 -54 -14v109q38 20 86 20q153 0 153 -145v-153h223z" />
<glyph horiz-adv-x="353" d="M477 377v-123h-258v-119h-119l-36 80q-29 66 -29 91q0 52 45 64v189h-110v112h414v-112h-165v-182h258z" />
<glyph horiz-adv-x="381" d="M411 559h-118q21 -32 21 -91.5t-36.5 -101t-94.5 -60.5q14 -39 44 -57.5t82.5 -18.5t95.5 29.5t67 76.5l69 -82q-25 -59 -93 -103.5t-157 -44.5q-110 0 -181.5 68.5t-90.5 201.5q156 22 156 104q0 50 -29 79h-176v112h441v-112z" />
<glyph horiz-adv-x="417" d="M35 366h76q92 0 92 76v117h-233v112h477v-112h-104v-125q0 -67 -33.5 -112.5t-96.5 -57.5q-8 -2 -15 -2l205 -262h-170l-198 256v110zM412 -241h-168l-120 176h143z" />
<glyph horiz-adv-x="514" d="M-30 559v112h574v-112h-574zM314 1q-128 0 -204 72t-76 193q0 98 50.5 156t140.5 58q60 0 97.5 -25.5t46.5 -63.5q28 97 154 97q105 0 159 -79l-68 -81q-10 18 -33.5 33.5t-49.5 15.5q-48 0 -69 -24t-21 -77v-65h-143v67q0 85 -58 85q-66 0 -66 -99q0 -147 156 -147 q20 0 43 3v-115q-27 -4 -59 -4z" />
<glyph horiz-adv-x="802" d="M-30 559v112h862v-112h-862zM253 199q47 0 73 85q12 37 16 59q-45 42 -86.5 42t-62 -26t-20.5 -68t21 -67t59 -25zM548 383q-73 0 -91 -140q48 -44 88.5 -44t62 25.5t21.5 66.5t-21.5 66.5t-59.5 25.5zM709.5 143q-62.5 -56 -152 -56t-163.5 59q-57 -59 -148.5 -59 t-153.5 56.5t-62 148t61 148.5t153 57t157 -57q62 55 154.5 55t154.5 -56.5t62 -148t-62.5 -147.5z" />
<glyph horiz-adv-x="362" d="M392 559h-422v112h422v-112zM328 375q-26 9 -62 9t-62 -26t-26 -67.5t28.5 -67t74.5 -25.5q86 0 152 103l67 -80q-81 -135 -237 -135q-99 0 -163.5 54.5t-64.5 149t61.5 155t161.5 60.5q40 0 70 -8v-122z" />
<glyph horiz-adv-x="492" d="M57 513q0 68 50.5 116t137.5 48t142 -55.5t55 -142.5q0 -112 -73 -173t-175 -67l237 -239h-180l-221 234v117h112q77 0 119 34t42 95q0 80 -61 80q-24 0 -36.5 -17t-12.5 -44.5t17 -59.5h-135q-18 35 -18 74z" />
<glyph horiz-adv-x="380" d="M271 166q-95 0 -153 53t-58 156v184h-90v112h440v-112h-181l204 -213q14 14 23 27l56 -81q-99 -126 -241 -126zM195 369q0 -46 27.5 -69t72 -23t82.5 23l-182 184v-115z" />
<glyph horiz-adv-x="435" d="M555 243h-234q-57 0 -125 8l187 -251h-170l-193 269v98h71q92 0 92 77v115h-213v112h495v-112h-142v-114q0 -53 -21 -91h253v-111z" />
<glyph horiz-adv-x="501" d="M588 219h-292q-51 0 -78 -19t-27 -50q0 -81 136 -81q51 0 138 19v-115q-80 -17 -144 -17q-132 0 -202 58.5t-70 137.5t68 129q-72 37 -72 110q0 58 43 89t111 31h144v48h-373v112h561v-112h-48v-158h-255q-37 0 -37 -27t31 -50q34 7 79 7h287v-112z" />
<glyph horiz-adv-x="586" d="M475 559v-109q44 39 106 39q98 0 153 -66l-101 -103q-16 57 -78 57q-35 0 -57.5 -25.5t-22.5 -67.5v-284h-142v116q-43 -38 -106 -38q-89 0 -143.5 55.5t-54.5 145t62 145t159 55.5q14 0 23 -1v-113q-6 1 -16 1q-41 0 -63.5 -25t-22.5 -62.5t21 -63t58.5 -25.5t60 25.5 t22.5 67.5v276h-363v112h606v-112h-101zM175 24q31 0 53.5 -22t22.5 -54t-22.5 -54t-53.5 -22t-53.5 22t-22.5 54t22.5 54t53.5 22z" />
<glyph horiz-adv-x="630" d="M493 210q-60 0 -100 39t-40 103.5t50 109t132 44.5q104 0 160.5 -59.5t56.5 -144.5q0 -127 -99.5 -205t-234.5 -78t-229 70.5t-144 196.5v110h69q34 0 49 16.5t15 54.5v92h-208v112h688v-112h-340v-122q0 -111 -84 -140q-16 -6 -26 -7q22 -69 83.5 -108t141.5 -39 t135.5 40.5t55.5 117.5q0 46 -22.5 73.5t-64.5 27.5q-24 0 -39 -14.5t-15 -35t12.5 -32t26 -11.5t22.5 3v-94q-26 -8 -51 -8zM105 34q31 0 53.5 -22t22.5 -54t-22.5 -54t-53.5 -22t-53.5 22t-22.5 54t22.5 54t53.5 22z" />
<glyph horiz-adv-x="322" d="M352 671v-112h-88v-214q0 -72 -40.5 -107t-96.5 -35t-97 14v110q22 -12 49 -12q44 0 44 46v198h-153v112h382zM165 94q31 0 53.5 -22t22.5 -54t-22.5 -54t-53.5 -22t-53.5 22t-22.5 54t22.5 54t53.5 22z" />
<glyph horiz-adv-x="442" d="M575 463v-115h-270q58 -38 58 -119t-56 -127.5t-138 -46.5t-139 21v124q47 -25 101 -25q99 0 99 82q0 43 -36 67t-107 24v115h488zM173 -6q31 0 53.5 -22t22.5 -54t-22.5 -54t-53.5 -22t-53.5 22t-22.5 54t22.5 54t53.5 22zM450 671v-112h-480v112h480z" />
<glyph horiz-adv-x="316" d="M72 63q0 31 22 53.5t54 22.5t54 -22.5t22 -53.5t-22 -53.5t-54 -22.5t-54 22.5t-22 53.5zM130 428h298v-112h-236q-18 0 -26 -9t-8 -37t8 -68h-112q-34 57 -34 130q0 45 28 70.5t82 25.5zM-30 559v112h376v-112h-376z" />
<glyph horiz-adv-x="630" d="M507 559v-100q48 41 117 41q124 0 180 -120l-110 -72q-9 34 -34.5 57t-64 23t-63.5 -24.5t-25 -68.5v-295h-142v212q-48 -41 -117 -41q-89 0 -138.5 50t-49.5 154v184h-90v112h709v-112h-172zM202 559v-190q0 -86 74 -86q39 0 64 24.5t25 68.5v183h-163zM145 104 q31 0 53.5 -22t22.5 -54t-22.5 -54t-53.5 -22t-53.5 22t-22.5 54t22.5 54t53.5 22z" />
<glyph horiz-adv-x="375" d="M72 -19q0 31 22 53.5t54 22.5t54 -22.5t22 -53.5t-22 -53.5t-54 -22.5t-54 22.5t-22 53.5zM411 559h-118q21 -32 21 -91.5t-36.5 -101t-94.5 -60.5q14 -39 44 -57.5t82.5 -18.5t95.5 29.5t67 76.5l69 -82q-25 -59 -93 -103.5t-157 -44.5q-110 0 -181.5 68.5t-90.5 201.5 q156 22 156 104q0 50 -29 79h-176v112h441v-112z" />
<glyph horiz-adv-x="637" d="M687 472l-233 -150q33 -81 100 -264l-218 180q-30 -22 -219 -180l102 264q-15 9 -118.5 75.5t-117.5 74.5l279 -9q46 174 74 264l71 -264q25 2 139 5.5t141 3.5z" />
<glyph horiz-adv-x="529" d="M447.5 731.5q-16.5 16.5 -16.5 41t16.5 41t41 16.5t41 -16.5t16.5 -41t-16.5 -41t-41 -16.5t-41 16.5zM567 852q-36 26 -80 26t-73 -27.5t-29 -67.5q0 -59 47 -112h127v-112h-95v-152h-1l1 -3h-212q-21 0 -36 -9.5t-15 -29.5q0 -37 41 -40l90 4q82 -6 124.5 -48.5 t42.5 -116.5t-54 -120.5t-141 -46.5q-63 0 -114 27v-95h-140v252h130q13 -35 42 -57t63 -22t54.5 18t20.5 48q0 42 -42 49l-91 -6q-73 5 -121 47t-48 112t56.5 108t134.5 38h75v43h-354v112h322q-52 68 -52 149.5t58 134.5t146 53q69 0 123 -26v-130z" />
<glyph horiz-adv-x="672" d="M702 559h-359v-112q57 33 113 33q86 0 133.5 -50t47.5 -133t-53.5 -134.5t-135.5 -51.5q-52 0 -77 12v110q20 -11 53 -11t52.5 19.5t19.5 52.5t-17 53t-49 20q-26 0 -43 -7t-25.5 -11t-21 -12.5t-17.5 -12.5t-18 -14.5t-16 -12.5q-35 -32 -84 -35h-7l205 -262h-170 l-198 256v110h76q92 0 92 76v117h-233v112h732v-112z" />
<glyph horiz-adv-x="702" d="M732 559h-389v-118q51 57 141.5 57t147 -58.5t56.5 -149.5t-56.5 -149.5t-142.5 -58.5q-47 0 -74 10v120q27 -9 56.5 -9t52.5 22t23 61.5t-19 62t-50 22.5t-50.5 -19t-19.5 -55v-46h-114v51q-35 -37 -88 -40h-8l205 -262h-170l-198 256v110h76q92 0 92 76v117h-233v112 h762v-112z" />
<glyph horiz-adv-x="548" d="M483 401h-255q-37 0 -37 -27q0 -24 23 -44q39 9 87 9q97 0 150 -44t53 -109q0 -21 -7 -41h-138q8 16 8 32q0 47 -71 47q-50 0 -77.5 -21t-27.5 -53q0 -78 87 -78q32 18 72 18q84 0 130.5 -43.5t46.5 -105.5q0 -79 -52 -128.5t-165 -49.5t-212 52v136q47 -28 111.5 -50.5 t106.5 -22.5q76 0 76 52q0 20 -14.5 34t-40.5 14t-43 -17q-8 -1 -35 -1t-63.5 9t-71 29.5t-55 60t-20.5 92.5q0 79 65 131q-69 40 -69 103.5t43 94.5t111 31h144v48h-373v112h611v-112h-98v-158z" />
<glyph horiz-adv-x="551" d="M483 401h-255q-37 0 -37 -26.5t28 -48.5q38 8 82 8q91 0 148 -43t57 -108q0 -38 -9 -58h-138q10 19 10 44t-20 37.5t-62 12.5t-69 -19t-27 -51t26 -53.5t80 -25.5q170 0 236 -134q38 -77 38 -175h-131q-1 83 -38 140t-104 57q-51 0 -51 -42q0 -20 16 -33.5t42.5 -13.5 t51.5 11v-106q-27 -11 -61 -11q-80 0 -131 39.5t-51 117.5q0 47 28 86q-46 22 -69.5 61.5t-23.5 83.5q0 79 66 130q-70 41 -70 104.5t43 94.5t111 31h144v48h-373v112h611v-112h-98v-158z" />
<glyph horiz-adv-x="481" d="M287 416q-96 0 -96 -46.5t93 -46.5h71v-118h-79q-99 0 -99 -51t113 -51q91 0 161 54v-127q-23 -15 -68.5 -27t-92.5 -12q-107 0 -181 39t-74 115q0 58 38.5 89t108.5 33q-67 1 -101.5 31t-34.5 85.5t49 88.5t135 33q26 0 39 -1v55h-299v112h541v-112h-102v-165 q-59 22 -122 22z" />
<glyph horiz-adv-x="582" d="M487 401h-245q-37 0 -37 -27.5t32 -50.5q47 11 108 11t100.5 -26.5t39.5 -72.5q0 -30 -34 -76.5t-34 -59.5q0 -19 32 -19t64.5 10t48.5 22v-101q-52 -30 -141 -30q-53 0 -92.5 24.5t-39.5 72.5q0 27 31.5 70t31.5 53q0 23 -31 23q-59 0 -98 -40t-39 -104.5t62.5 -115.5 t175.5 -51q41 0 57 3v-104q-28 -4 -80.5 -4t-116.5 16.5t-118.5 49t-87.5 89t-33 129.5q0 120 92 186q-76 38 -76 113q0 58 43 89t111 31h134v48h-377v112h642v-112h-125v-158z" />
<glyph d="M-30 671h341v-112h-100v-559h-141v120l-124 -79q-19 -12 -19 -38t43 -67l-80 -49q-44 23 -75 60.5t-31 83t59 82.5l227 140v306h-100v112z" />
<glyph horiz-adv-x="653" d="M683 671v-112h-119v-559h-141v100q-17 -29 -57 -46.5t-90 -17.5q-100 0 -166 62.5t-81 187.5q112 27 138 57q13 15 13 31.5t-15 26.5t-50.5 10t-108 -16.5t-124.5 -37.5v116q50 19 121 31.5t120 12.5q195 0 195 -140q0 -51 -35.5 -90.5t-90.5 -58.5q24 -68 108 -68 q57 0 90 33t33 99v267h-453v112h713z" />
<glyph d="M-30 671h341v-112h-100v-559h-141v140l-152 -140h-177l329 294v265h-100v112z" />
<glyph horiz-adv-x="0" d="M-228 0h172l176 -199h-170l-92 119l-92 -119h-170z" />
<glyph horiz-adv-x="192" d="M222 559h-252v112h252v-112zM6 400q53 -32 126.5 -32t155.5 47l32 -111q-85 -46 -190 -46q-70 0 -124 26v116z" />
<glyph horiz-adv-x="0" d="M49 787q-50 26 -84.5 26t-55.5 -18.5t-21 -57t38 -78.5h-142q-14 11 -27.5 44.5t-13.5 64.5q0 82 53 125.5t127.5 43.5t125.5 -25v-125z" />
<glyph horiz-adv-x="0" d="M-70.5 731.5q-16.5 16.5 -16.5 41t16.5 41t41 16.5t41 -16.5t16.5 -41t-16.5 -41t-41 -16.5t-41 16.5zM-133 783q0 -65 59 -124h-142q-62 73 -62 158t58 138t146 53q69 0 123 -26v-130q-36 26 -80 26t-73 -27.5t-29 -67.5z" />
<glyph d="M336 787q-50 26 -84.5 26t-55.5 -18.5t-21 -53.5t28 -70h108v-112h-100v-559h-141v559h-100v112h91q-31 44 -31 97q0 82 53 125.5t127.5 43.5t125.5 -25v-125z" />
<glyph d="M212.5 731.5q-16.5 16.5 -16.5 41t16.5 41t41 16.5t41 -16.5t16.5 -41t-16.5 -41t-41 -16.5t-41 16.5zM-30 671h87q-52 68 -52 149.5t58 134.5t146 53q69 0 123 -26v-130q-36 26 -80 26t-73 -27.5t-29 -67.5q0 -59 47 -112h114v-112h-100v-559h-141v559h-100v112z" />
<glyph horiz-adv-x="0" d="M-131 887q0 75 46.5 121.5t120 46.5t124.5 -25v-130q-43 31 -96 31q-31 0 -47.5 -18.5t-16.5 -50.5v-85l-131 23v87z" />
<glyph horiz-adv-x="0" d="M-65 908q0 34 23.5 58t58.5 24t58.5 -24t23.5 -58t-23.5 -58t-58.5 -24t-58.5 24t-23.5 58z" />
<glyph horiz-adv-x="0" d="M61.5 768.5q-16.5 16.5 -16.5 41t16.5 41t41 16.5t41 -16.5t16.5 -41t-16.5 -41t-41 -16.5t-41 16.5zM64 931q-31 0 -47.5 -18.5t-16.5 -50.5v-85l-131 23v87q0 75 46.5 121.5t120 46.5t124.5 -25v-130q-43 31 -96 31z" />
<glyph horiz-adv-x="282" d="M375 787q-50 26 -87 26t-57.5 -22t-20.5 -65v-55h102v-112h-100v-559h-142v559h-100v112h99v60q0 37 -19.5 57t-55.5 20q-70 0 -70 -77v-25h-142v30q0 94 60 142t157.5 48t149.5 -64q41 76 125 76q60 0 101 -26v-125z" />
<glyph d="M337 900q35 0 58.5 -24t23.5 -58t-23.5 -58t-58.5 -24t-58.5 24t-23.5 58t23.5 58t58.5 24zM210 737v-66h101v-112h-100v-559h-141v559h-100v112h99v60q0 37 -19.5 57t-55.5 20q-70 0 -70 -77v-25h-142v30q0 94 60 142t152.5 48t154 -47.5t61.5 -141.5z" />
<glyph horiz-adv-x="282" d="M-218 706v30q0 92 51.5 141t138.5 49q111 0 157 -64q14 62 62 104t105.5 42t94.5 -26v-130q-36 26 -83 26t-72.5 -29t-25.5 -85v-93h102v-112h-100v-559h-142v559h-100v112h99v60q0 37 -19.5 57t-55.5 20q-70 0 -70 -77v-25h-142zM271.5 813.5q16.5 16.5 41 16.5 t41 -16.5t16.5 -41t-16.5 -41t-41 -16.5t-41 16.5t-16.5 41t16.5 41z" />
<glyph d="M210 671h101v-112h-100v-559h-141v559h-100v112h101v29q0 56 -49 82t-158 26q-198 0 -198 -89v-13h-142v18q0 96 90 149t250.5 53t253 -55t92.5 -165v-35z" />
<glyph d="M371 787q-50 26 -87 26t-57.5 -22t-20.5 -65v-55h105v-112h-100v-559h-141v559h-100v112h101v29q0 56 -49 82t-158 26q-198 0 -198 -89v-13h-142v18q0 96 90 149t236 53q206 0 289 -77q17 40 50.5 64.5t87 24.5t94.5 -26v-125z" />
<glyph d="M337 900q35 0 58.5 -24t23.5 -58t-23.5 -58t-58.5 -24t-58.5 24t-23.5 58t23.5 58t58.5 24zM210 706v-35h101v-112h-100v-559h-141v559h-100v112h101v29q0 56 -49 82t-158 26q-198 0 -198 -89v-13h-142v18q0 96 90 149t250.5 53t253 -55t92.5 -165z" />
<glyph d="M-476 706v18q0 96 90 149t236 53q206 0 280 -93q5 74 53 124.5t121 50.5q56 0 93 -26v-130q-36 26 -83 26t-72.5 -29t-25.5 -85v-93h95v-112h-100v-559h-141v559h-100v112h101v29q0 56 -49 82t-158 26q-198 0 -198 -89v-13h-142zM277.5 813.5q16.5 16.5 41 16.5t41 -16.5 t16.5 -41t-16.5 -41t-41 -16.5t-41 16.5t-16.5 41t16.5 41z" />
<glyph horiz-adv-x="0" d="M-138 651q-4 8 -9 13h-68l-72 105q-29 41 -76 41q-31 0 -64 -10v118q36 7 84.5 7t81.5 -20t67 -72l14 -22q11 52 52 84t99.5 32t97.5 -23v-130q-45 31 -96 31q-30 -1 -48.5 -21t-18.5 -46q0 -45 18 -87h-62z" />
<glyph horiz-adv-x="0" d="M-99 838q0 34 23.5 58t58.5 24t58.5 -24t23.5 -58t-23.5 -58t-58.5 -24t-58.5 24t-23.5 58zM-363 810q-31 0 -64 -10v118q36 7 87 6q107 -1 166 -91l110 -169h-151l-72 105q-27 41 -76 41z" />
<glyph horiz-adv-x="0" d="M-114 783q0 -65 59 -124h-112l-4 5h-44l-72 105q-27 41 -76 41q-31 0 -64 -10v118q36 7 76 7q82 -1 130 -48q16 57 61.5 93t111.5 36t116 -24v-130q-36 26 -80 26t-73 -27.5t-29 -67.5zM-50.5 813.5q16.5 16.5 41 16.5t41 -16.5t16.5 -41t-16.5 -41t-41 -16.5t-41 16.5 t-16.5 41t16.5 41z" />
<glyph horiz-adv-x="0" d="M-41 940q56 0 97 -28v-125q-50 26 -84.5 26t-55.5 -18.5t-21 -47.5t13 -53q12 -20 25 -35h-82q-1 2 -4 5h-82q-116 62 -186 62q-30 0 -56 -7v100q31 9 72 9t86.5 -23.5t139.5 -103.5l-95 112q-30 35 -58.5 51t-70 16t-74.5 -10v105q27 9 83 9q126 0 200 -122l9 -15 q36 93 144 93z" />
<glyph horiz-adv-x="0" d="M-17 900q35 0 58.5 -24t23.5 -58t-23.5 -58t-58.5 -24t-58.5 24t-23.5 58t23.5 58t58.5 24zM-394 984q126 0 200 -122l120 -198h-161q-116 62 -186 62q-30 0 -56 -7v100q31 9 72 9t86.5 -23.5t139.5 -103.5l-95 112q-30 35 -58.5 51t-70 16t-74.5 -10v105q27 9 83 9z" />
<glyph horiz-adv-x="0" d="M-394 984q120 0 192 -109q12 59 54.5 96.5t104 37.5t104.5 -27v-130q-36 26 -80 26t-73 -27.5t-29 -67.5t23 -80q8 -16 36 -44h-82l-4 5h-87q-116 62 -186 62q-30 0 -56 -7v100q31 9 72 9t86.5 -23.5t139.5 -103.5l-95 112q-30 35 -58.5 51t-70 16t-74.5 -10v105 q27 9 83 9zM-58.5 813.5q16.5 16.5 41 16.5t41 -16.5t16.5 -41t-16.5 -41t-41 -16.5t-41 16.5t-16.5 41t16.5 41z" />
<glyph d="M305 908q35 0 58.5 -24t23.5 -58t-23.5 -58t-58.5 -24t-58.5 24t-23.5 58t23.5 58t58.5 24zM7 844h25q177 0 179 -173h100v-112h-100v-559h-141v559h-100v112h100q-2 35 -13 47.5t-41 12.5h-27q-30 0 -50.5 1.5t-52 11.5t-51 27.5t-34.5 52.5t-15 84h143q0 -40 16.5 -52 t61.5 -12z" />
<glyph d="M210.5 784q-18.5 -20 -18.5 -51.5t10 -61.5h109v-112h-100v-559h-141v559h-100v112h96l-67 98q-29 41 -76 41q-31 0 -64 -10v118q36 7 84.5 7t81.5 -20t67 -72l14 -22q11 52 52 84t99.5 32t97.5 -23v-130q-45 31 -96 31q-30 -1 -48.5 -21z" />
<glyph d="M263 920q35 0 58.5 -24t23.5 -58t-23.5 -58t-58.5 -24t-58.5 24t-23.5 58t23.5 58t58.5 24zM311 671v-112h-100v-559h-141v559h-100v112h90l-67 98q-27 41 -76 41q-31 0 -64 -10v118q36 7 87 6q107 -1 166 -91l105 -162h100z" />
<glyph d="M226.5 731.5q-16.5 16.5 -16.5 41t16.5 41t41 16.5t41 -16.5t16.5 -41t-16.5 -41t-41 -16.5t-41 16.5zM117.5 970q45.5 36 112 36t115.5 -24v-130q-36 26 -80 26t-73 -27.5t-29 -67.5q0 -59 47 -112h101v-112h-100v-559h-141v559h-100v112h87l-67 98q-27 41 -76 41 q-31 0 -64 -10v118q36 7 76 7q82 -1 130 -48q16 57 61.5 93z" />
<glyph d="M346 787q-50 26 -84.5 26t-55.5 -18.5t-21 -47.5t13 -53l15 -23h98v-112h-100v-559h-141v559h-100v112h72q-106 55 -173 55q-30 0 -56 -7v100q31 9 72 9t86.5 -23.5t139.5 -103.5l-95 112q-30 35 -58.5 51t-70 16t-74.5 -10v105q27 9 83 9q126 0 200 -122l9 -15 q36 93 144 93q56 0 97 -28v-125z" />
<glyph d="M270 900q34 0 58 -24t24 -58t-24 -58t-58 -24t-58 24t-24 58t24 58t58 24zM311 671v-112h-100v-559h-141v559h-100v112h69q-106 55 -173 55q-30 0 -56 -7v100q31 9 72 9t86.5 -23.5t139.5 -103.5l-95 112q-30 35 -58.5 51t-70 16t-74.5 -10v105q27 9 83 9q126 0 200 -122 l116 -191h102z" />
<glyph d="M220.5 731.5q-16.5 16.5 -16.5 41t16.5 41t41 16.5t41 -16.5t16.5 -41t-16.5 -41t-41 -16.5t-41 16.5zM-115 984q120 0 192 -109q12 59 54.5 96.5t104 37.5t104.5 -27v-130q-36 26 -80 26t-73 -27.5t-29 -67.5t23 -80q4 -9 24 -32h106v-112h-100v-559h-141v559h-100v112 h61q-106 55 -173 55q-30 0 -56 -7v100q31 9 72 9t86.5 -23.5t139.5 -103.5l-95 112q-30 35 -58.5 51t-70 16t-74.5 -10v105q27 9 83 9z" />
<glyph horiz-adv-x="794" d="M582 671h242v-112h-100v-559h-142v312h-214q-59 0 -110 12q-96 -42 -96 -106q0 -32 21 -50.5t58 -18.5q94 0 110 100h138v-249h-140v88q-17 -24 -55 -40t-82 -16q-87 0 -140 47.5t-53 127.5q0 114 125 171q-57 50 -57 127t51.5 126.5t139.5 49.5t140 -41t52 -109 t-47 -112h159v252zM322 551q-16 15 -43 15t-43 -16.5t-16 -43.5q0 -58 67 -76q51 27 51 82q0 24 -16 39z" />
<glyph horiz-adv-x="563" d="M679 312h-311q-59 0 -110 12q-96 -42 -96 -106q0 -32 21 -50.5t58 -18.5q94 0 110 100h138v-249h-140v88q-17 -24 -55 -40t-82 -16q-87 0 -140 47.5t-53 127.5q0 114 125 171q-57 50 -57 127t51.5 126.5t139.5 49.5t140 -41t52 -109t-47 -112h256v-107zM322 551 q-16 15 -43 15t-43 -16.5t-16 -43.5q0 -58 67 -76q51 27 51 82q0 24 -16 39z" />
<glyph horiz-adv-x="1130" d="M515 671h645v-112h-100v-559h-138v261h-158v-122h-119l-36 80q-29 66 -29 92v1h-212q-59 0 -110 12q-96 -42 -96 -106q0 -32 21 -50.5t58 -18.5q94 0 110 100h138v-249h-140v88q-17 -24 -55 -40t-82 -16q-87 0 -140 47.5t-53 127.5q0 114 125 171q-57 50 -57 127 t51.5 126.5t139.5 49.5t140 -41t52 -109t-47 -112h202v140h-110v112zM322 551q-16 15 -43 15t-43 -16.5t-16 -43.5q0 -58 67 -76q51 27 51 82q0 24 -16 39zM922 373v186h-158v-186h158z" />
<glyph horiz-adv-x="887" d="M1160 559h-396v-182h208v-123h-208v-119h-119l-36 80q-29 66 -29 91v6h-212q-59 0 -110 12q-96 -42 -96 -106q0 -32 21 -50.5t58 -18.5q94 0 110 100h138v-249h-140v88q-17 -24 -55 -40t-82 -16q-87 0 -140 47.5t-53 127.5q0 114 125 171q-57 50 -57 127t51.5 126.5 t139.5 49.5t140 -41t52 -109t-47 -112h202v140h-110v112h645v-112zM322 551q-16 15 -43 15t-43 -16.5t-16 -43.5q0 -58 67 -76q51 27 51 82q0 24 -16 39z" />
<glyph horiz-adv-x="1494" d="M1524 671v-112h-100v-559h-141v170q-17 -29 -57 -46.5t-100.5 -17.5t-119.5 38.5t-93 109.5h-154v-119h-119l-36 80q-29 66 -29 91v6h-207q-59 0 -110 12q-96 -42 -96 -106q0 -32 21 -50.5t58 -18.5q94 0 110 100h138v-249h-140v88q-17 -24 -55 -40t-82 -16 q-87 0 -140 47.5t-53 127.5q0 114 125 171q-57 50 -57 127t51.5 126.5t139.5 49.5t140 -41t52 -109t-47 -112h197v140h-110v112h1014zM322 551q-16 15 -43 15t-43 -16.5t-16 -43.5q0 -58 67 -76q51 27 51 82q0 24 -16 39zM759 377h127q149 24 149 103q0 50 -29 79h-247v-182 zM1283 362v197h-130q21 -32 21 -91.5t-36.5 -101t-94.5 -60.5q23 -76 117 -76q57 0 90 33t33 99z" />
<glyph horiz-adv-x="1144" d="M520 671h654v-112h-100v-559h-141v170q-17 -29 -57 -46.5t-90 -17.5q-85 0 -151 54t-93 152h-174q-59 0 -110 12q-96 -42 -96 -106q0 -32 21 -50.5t58 -18.5q94 0 110 100h138v-249h-140v88q-17 -24 -55 -40t-82 -16q-87 0 -140 47.5t-53 127.5q0 114 125 171 q-57 50 -57 127t51.5 126.5t139.5 49.5t140 -41t52 -109t-47 -112h230q32 25 32 68t-29 72h-136v112zM322 551q-16 15 -43 15t-43 -16.5t-16 -43.5q0 -58 67 -76q51 27 51 82q0 24 -16 39zM933 362v197h-130q21 -32 21 -91.5t-36.5 -101t-94.5 -60.5q23 -76 117 -76 q57 0 90 33t33 99z" />
<glyph horiz-adv-x="1133" d="M1163 671v-112h-100v-559h-142v135q-55 -49 -143 -49t-150.5 55t-62.5 151q0 13 1 20h-198q-59 0 -110 12q-96 -42 -96 -106q0 -32 21 -50.5t58 -18.5q94 0 110 100h138v-249h-140v88q-17 -24 -55 -40t-82 -16q-87 0 -140 47.5t-53 127.5q0 114 125 171q-57 50 -57 127 t51.5 126.5t139.5 49.5t140 -41t52 -109t-47 -112h181q63 86 184 86q40 0 70 -8v-122q-34 9 -66 9t-58 -24t-26 -67.5t26.5 -69t71.5 -25.5t80 26.5t35 66.5v268h-401v112h643zM322 551q-16 15 -43 15t-43 -16.5t-16 -43.5q0 -58 67 -76q51 27 51 82q0 24 -16 39z" />
<glyph horiz-adv-x="758" d="M-30 671h841v-112h-100v-559h-142v394h-306q-57 0 -57 -30q0 -19 19.5 -26.5t80.5 -9.5q95 -3 144 -44t49 -116t-58 -120.5t-130.5 -45.5t-125.5 32v-85h-140v242h130q12 -34 43 -59t66 -25t55.5 16t20.5 45q0 53 -94 53q-203 0 -203 140q0 75 56 110t135 35h315v53h-599 v112z" />
<glyph horiz-adv-x="545" d="M696 384h-433q-57 0 -57 -30q0 -18 18 -23.5t82 -7.5q193 -6 193 -155q0 -75 -58 -120.5t-130.5 -45.5t-125.5 32v-85h-140v242h130q12 -34 43 -59t66 -25t55.5 16t20.5 43.5t-21.5 38.5t-72.5 11q-203 0 -203 135q0 75 56 110t135 35h442v-112zM575 671v-112h-605v112 h605z" />
<glyph horiz-adv-x="1164" d="M1194 671v-112h-100v-559h-141v170q-17 -29 -57 -46.5t-90 -17.5q-92 0 -161.5 63.5t-90.5 175.5q-39 39 -154 39h-137q-57 0 -57 -30q0 -18 18 -23.5t82 -7.5q193 -6 193 -155q0 -75 -58 -120.5t-130.5 -45.5t-125.5 32v-85h-140v242h130q12 -34 43 -59t66 -25t55.5 16 t20.5 43.5t-21.5 38.5t-72.5 11q-203 0 -203 135q0 75 56 110t135 35h159q168 0 253 -82q39 26 39 71t-29 74h-706v112h1224zM953 362v197h-130q21 -32 21 -91.5t-36.5 -101t-94.5 -60.5q23 -76 117 -76q57 0 90 33t33 99z" />
<glyph horiz-adv-x="824" d="M855 559h-364v-109q44 39 106 39q89 0 143.5 -55.5t54.5 -145t-62 -145t-159 -55.5q-15 0 -23 1v113q6 -1 16 -1q41 0 63.5 25t22.5 62.5t-21 63t-58.5 25.5t-60 -25.5t-22.5 -67.5v-284h-142v126q-10 -8 -16 -12l-119 -101q-16 -13 -16 -29q0 -26 55 -81l-77 -57 q-47 20 -82.5 59.5t-35.5 83t51 77.5l51 36q-54 20 -84.5 66.5t-30.5 109.5q0 93 62 147t159 54q14 0 23 -1v-113q-6 1 -16 1q-41 0 -63.5 -24t-22.5 -60.5t21 -59t58.5 -22.5t60 25.5t22.5 67.5v266h-379v112h885v-112z" />
<glyph horiz-adv-x="660" d="M690 671v-112h-100v-559h-140v168q-19 -26 -46 -42l-157 -116q-18 -13 -18 -35t48 -78l-80 -51q-45 24 -75.5 61.5t-30.5 77.5q0 53 56 86l51 30q-56 17 -87.5 58.5t-31.5 93.5q0 72 53 106h-112v115h359v-115q-165 0 -165 -86q0 -33 25 -51t68 -18q65 0 104 41t39 78 v236h-480v112h720z" />
<glyph horiz-adv-x="662" d="M692 559h-144v-85q74 -50 74 -159.5t-83 -184.5v-435h-132v181h-115q-18 0 -26 -9t-8 -37t8 -68h-112q-34 57 -34 111q0 105 110 105h177v84q-48 -13 -108 -13q-106 0 -180 45.5t-74 127.5q0 56 37.5 89t105.5 37q-64 1 -98.5 37.5t-34.5 87.5t33 86h-118v112h722v-112z M414 559h-176q-42 -33 -42 -82q0 -30 19 -50t53 -20h37v-118h-37q-81 0 -81 -60q0 -29 31.5 -46.5t81.5 -17.5q81 0 130 39.5t49 105.5q0 41 -22 62.5t-54.5 21.5t-50.5 -5v111q23 6 62 8v51z" />
<glyph horiz-adv-x="545" d="M464 559v-202q-42 8 -105 8t-122 -25t-59 -82q0 -98 175 -98q44 0 90.5 12.5t76.5 30.5v-127q-18 -10 -60 -22v-309h-132v121h-95q-18 0 -26 -9t-8 -32t8 -63h-112q-34 57 -34 106t28 74.5t82 25.5h157v71q-135 3 -214 61t-79 163q0 90 77 150t203 63h9v83h-354v112h604 v-112h-110z" />
<glyph horiz-adv-x="620" d="M339 58l-26 -1q-116 0 -194.5 58t-78.5 151.5t65 146t158 64.5v82h-293v112h680v-112h-246v-90q79 -21 127.5 -72.5t48.5 -127.5q0 -114 -109 -173v-307h-132v121h-95q-18 0 -26 -9t-8 -32t8 -63h-112q-34 57 -34 106t28 74.5t82 25.5h157v46zM404.5 196 q33.5 27 33.5 74.5t-34.5 73t-92 25.5t-93.5 -24.5t-36 -73t37 -75.5t94.5 -27t91 27z" />
<glyph horiz-adv-x="589" d="M507 383h-208q-53 0 -84.5 -28t-31.5 -75.5t27 -74t71 -26.5q94 0 110 100h138v-289h-140v125q-10 -14 -27 -25l-142 -110q-19 -13 -19 -38.5t43 -66.5l-80 -49q-44 23 -75 60.5t-31 78.5q0 53 59 87l47 28q-58 24 -91 77t-33 121q0 97 65.5 157t187.5 60h71v64h-394v112 h649v-112h-112v-176z" />
<glyph horiz-adv-x="556" d="M-30 671h616v-112h-100v-559h-142v184l-126 -31q-40 -10 -40 -60q0 -7 12 -61l-89 -21q-22 22 -44 65t-22 80q0 71 88 92l192 40l-96 60q-15 12 -31 12q-42 0 -85 -63l-69 61q13 61 46 105.5t78 44.5t90 -32l96 -69v152h-374v112z" />
<glyph horiz-adv-x="844" d="M874 559h-362v-100q48 41 117 41q87 0 136 -56.5t49 -138.5q0 -100 -62 -152.5t-156 -52.5q-17 0 -25 1v113q6 -1 16 -1q86 0 86 91q0 35 -19.5 59.5t-55.5 24.5t-61 -24.5t-25 -68.5v-295h-142v212l-137 -115q-18 -15 -18 -40.5t42 -67.5l-80 -49q-44 23 -75 60.5 t-31 82.5t59 83l34 21q-99 43 -99 188v184h-95v112h904v-112zM370 376v183h-163v-190q0 -86 74 -86q39 0 64 24.5t25 68.5z" />
<glyph horiz-adv-x="632" d="M662 671v-112h-100v-559h-142v132q-45 -37 -151 -126q-18 -15 -18 -40.5t42 -67.5l-80 -49q-44 23 -75 60.5t-31 78.5q0 55 59 87l21 12q-67 23 -109.5 77.5t-42.5 127.5q0 94 63.5 156.5t168.5 62.5q46 0 81 -8v-122q-30 10 -59 10t-46 -6l166 -136q11 19 11 42v268 h-450v112h692zM192 346q-14 -25 -14 -65t30 -68.5t74 -28.5t80 19z" />
<glyph horiz-adv-x="758" d="M546 671h242v-112h-100v-559h-142v188l-158 -114q-19 -12 -19 -37t37 -56l-80 -49q-100 53 -100 127q0 50 59 87l122 81q-57 18 -112 41l-195 -120l-110 85l182 107q-88 72 -88 170q0 71 54.5 121t143 50t144.5 -49t56 -131.5t-77 -143.5q64 -23 141 -45v359z M325.5 546.5q-16.5 19.5 -43 19.5t-42.5 -16.5t-16 -43.5q0 -52 63 -93q55 33 55 89q0 25 -16.5 44.5z" />
<glyph horiz-adv-x="822" d="M852 671v-112h-100v-559h-141v230l-108 -49q-27 -14 -27 -41.5t27 -68.5l-89 -31q-76 66 -76 135.5t79 95.5l142 45q-59 37 -118 37q-35 0 -73.5 -10t-59.5 -19t-60 -27q-22 -14 -41 -18t-27 -6l163 -273h-160l-163 269v98h71q92 0 92 77v115h-213v112h882zM323 559v-113 q60 22 118 22q107 0 170 -57v148h-288z" />
<glyph horiz-adv-x="679" d="M587 401h-345q-37 0 -37 -27q0 -31 38 -55q57 15 132 15q131 0 205.5 -62t74.5 -167q0 -49 -9 -80h-126q8 26 8 61.5t-13 63.5l-91 -43q-18 -8 -18 -26t39 -72l-87 -41q-28 22 -55.5 57.5t-27.5 69.5q0 48 60 76l91 43q-27 7 -63 7q-84 0 -131.5 -37.5t-47.5 -103 t62.5 -116.5t175.5 -51q41 0 57 3v-104q-28 -4 -80.5 -4t-116.5 16.5t-118.5 49t-87.5 89t-33 129.5q0 118 99 183q-18 7 -41 26q-42 36 -42 92t43 87t111 31h234v48h-477v112h739v-112h-122v-158z" />
<glyph horiz-adv-x="824" d="M855 559h-364v-109q44 39 106 39q89 0 143.5 -55.5t54.5 -145t-62 -145t-159 -55.5q-15 0 -23 1v113q6 -1 16 -1q41 0 63.5 25t22.5 62.5t-21 63t-58.5 25.5t-60 -25.5t-22.5 -67.5v-284h-142v118l-131 -163h-167l118 135q-58 20 -91 69.5t-33 115.5q0 93 62 148.5 t159 55.5q14 0 23 -1v-113q-6 1 -16 1q-41 0 -63.5 -25t-22.5 -62.5t21 -63t58.5 -25.5t60 25.5t22.5 67.5v276h-379v112h885v-112z" />
<glyph horiz-adv-x="822" d="M852 671v-112h-100v-559h-142v111q-34 -31 -130 -106.5t-142 -113.5h-209l192 156q-192 36 -276 249v110h69q34 0 47 14.5t13 52.5v86h-204v112h882zM610 559h-296v-114q0 -62 -22 -97q-23 -35 -84 -48q22 -68 79 -102.5t137 -34.5t138 32.5t58 105.5q0 46 -21.5 73.5 t-53.5 27.5t-49 -12t-17 -30.5t11 -29.5t26 -11t24 3v-94q-26 -8 -51 -8q-60 0 -100 38t-40 101.5t50 105t125 41.5q45 0 86 -18v71z" />
<glyph horiz-adv-x="600" d="M-30 671h660v-112h-100v-559h-140v129l-172 -149h-189l361 319v260h-111v-214q0 -72 -40.5 -107t-96.5 -35t-97 14v110q22 -12 49 -12q44 0 44 46v198h-168v112z" />
<glyph horiz-adv-x="644" d="M674 671v-112h-100v-559h-140v140l-204 -185h-187l140 123q-64 14 -103.5 56t-39.5 102.5t42.5 98.5t114.5 43q-68 2 -105.5 29.5t-37.5 73.5t30 78h-114v112h704zM434 341v218h-207q-31 -26 -31 -61q0 -61 89 -61h40v-118h-48q-44 0 -69.5 -18.5t-25.5 -50t25.5 -48 t66.5 -16.5q72 0 116 39.5t44 115.5z" />
<glyph horiz-adv-x="640" d="M-30 671h700v-112h-237v-155h-209q-51 0 -51 -39q0 -24 27 -30.5t89 -6.5q200 0 200 -153q-1 -51 -31 -91t-84 -62l134 -171h-170l-82 129l-82 -129h-170l128 163q-52 13 -97 38v130q106 -65 217 -65q47 0 72 14t25 38.5t-23 33t-73 8.5t-84.5 7t-66 23t-50 47t-18.5 74 q0 77 56.5 115.5t134.5 38.5h68v43h-323v112zM554 441q34 0 58 -23.5t24 -58.5t-24 -58.5t-58 -23.5t-58 23.5t-24 58.5t24 58.5t58 23.5z" />
<glyph horiz-adv-x="660" d="M690 671v-112h-100v-559h-140v167l-214 -212h-184l150 145q-58 16 -90.5 58t-32.5 95q0 72 53 106h-112v115h359v-115q-165 0 -165 -86q0 -33 25 -51t74.5 -18t93 34.5t43.5 84.5v236h-480v112h720z" />
<glyph horiz-adv-x="657" d="M687 559h-139v-85q74 -50 74 -145.5t-48 -160t-132 -95.5l136 -173h-170l-80 129l-84 -129h-170l126 161q-70 18 -112.5 58.5t-42.5 99.5t37.5 92t105.5 37q-64 1 -98.5 37.5t-34.5 87.5t33 86h-118v112h717v-112zM414 559h-176q-42 -33 -42 -82q0 -30 19 -50t53 -20h37 v-118h-37q-81 0 -81 -60q0 -29 31.5 -46.5t81.5 -17.5q81 0 130 39.5t49 105.5q0 41 -22 62.5t-54.5 21.5t-50.5 -5v111q23 6 62 8v51z" />
<glyph horiz-adv-x="658" d="M-30 671h718v-112h-100v-559h-142v56l-180 -156h-179l359 308v140h-140q57 -36 57 -105t-59.5 -113.5t-138 -44.5t-135.5 21v124q47 -25 101 -25q99 0 99 64q0 79 -143 79v115h359v96h-476v112z" />
<glyph horiz-adv-x="881" d="M911 671v-112h-100v-559h-142v60l-170 -178h-188l358 326v21h-185q8 -23 8 -58q0 -76 -51.5 -122.5t-126.5 -46.5t-129 31v-84h-140v242h130l1 -7q18 -36 47.5 -56.5t61.5 -20.5t50 14.5t18 44t-23 40.5t-64 11q-207 0 -207 143q0 79 56 117.5t144 38.5h66v43h-355v112 h941zM266 336h403v223h-204v-155h-200q-63 0 -63 -36q0 -32 64 -32z" />
<glyph horiz-adv-x="710" d="M740 671v-112h-100v-559h-142v66l-192 -166h-191l383 316v32h-92q-18 -70 -81 -115.5t-147 -45.5q-45 0 -89.5 11t-68.5 26v127q72 -43 147 -43q104 0 104 91q0 81 -92 81q-46 0 -90 -19v119q42 17 114.5 17t127.5 -35.5t73 -101.5h94v199h-528v112h770z" />
<glyph horiz-adv-x="525" d="M454 559v-202q-42 7 -95 7q-84 0 -127.5 -32t-43.5 -87.5t42.5 -85t115 -29.5t144.5 43v-127q-37 -18 -66 -26l125 -160h-170l-80 129l-84 -129h-170l138 176q-66 28 -102 83t-36 131q0 93 68 157.5t191 68.5h10v83h-344v112h585v-112h-101z" />
<glyph horiz-adv-x="575" d="M605 559h-223v-91q73 -20 116 -71.5t43 -122t-33.5 -119.5t-94.5 -75l135 -172h-170l-82 129l-82 -129h-170l132 168q-66 24 -103.5 74t-37.5 121q0 90 59 142.5t147 63.5v82h-271v112h635v-112zM209.5 196q32.5 -27 82 -27t78.5 27t29 74.5t-29.5 72.5t-79.5 25.5 t-81.5 -24t-31.5 -73t32.5 -75.5z" />
<glyph horiz-adv-x="539" d="M294 328q200 0 200 -153q-1 -51 -31 -91t-84 -62l134 -171h-170l-82 129l-82 -129h-170l128 163q-52 13 -97 38v130q106 -65 217 -65q47 0 72 14t25 37t-17.5 32t-59.5 11h-29q-81 0 -140 30q-32 16 -50.5 47t-18.5 74q0 77 56.5 115.5t134.5 38.5h68v43h-328v112h599 v-112h-131v-152h-1l1 -3h-209q-51 0 -51 -39q0 -24 27 -30.5t89 -6.5z" />
<glyph horiz-adv-x="568" d="M464 559v-192q-47 11 -99.5 11t-93 -11t-69.5 -41t-29 -78.5t37 -87t96 -38.5q38 0 63.5 15t25.5 39q0 46 -57 46q-42 0 -72 -22v99q44 23 109 23t109.5 -37t44.5 -96q0 -116 -113 -160l132 -169h-170l-82 129l-82 -129h-170l134 171q-69 29 -108.5 88t-39.5 132 q0 116 79 174.5t205 60.5h10v73h-354v112h627v-112h-133z" />
<glyph horiz-adv-x="764" d="M794 671v-112h-100v-559h-141v131l-198 -158h-207l405 325v261h-117v-175q0 -96 -53 -146.5t-147.5 -50.5t-145 49t-50.5 145v178h-70v112h824zM297 372v187h-117v-188q0 -66 58.5 -66t58.5 67z" />
<glyph horiz-adv-x="638" d="M668 671v-112h-100v-559h-142v195l-274 -168l-71 108l288 173q-54 61 -141.5 61t-167.5 -50v127q30 20 79 32.5t93 12.5q119 0 194 -77v145h-456v112h698z" />
<glyph horiz-adv-x="674" d="M409 507q0 -147 -227 -218q28 -68 127 -68q60 0 106.5 32.5t46.5 107.5v310h242v-112h-100v-559h-142v162l-211 -207h-199l166 155q-82 24 -136.5 91t-61.5 165q141 36 199.5 66.5t58.5 81t-43 50.5q-45 0 -45 -52q0 -28 12 -55h-134q-11 32 -11 67q0 68 46.5 112.5 t127.5 44.5t129.5 -46t48.5 -128z" />
<glyph horiz-adv-x="584" d="M-30 671h644v-112h-112v-176h-208q-53 0 -84.5 -28t-31.5 -75.5t27 -74t71 -26.5q94 0 110 100h138v-289h-140v125l-161 -170h-181l129 130q-63 24 -99.5 77.5t-36.5 125.5q0 97 65.5 157t187.5 60h71v64h-389v112z" />
<glyph horiz-adv-x="649" d="M679 671v-112h-100v-559h-140v146l-194 -191h-191l141 131q-65 13 -107.5 54t-42.5 98.5t41.5 92t115.5 37.5q-68 2 -105.5 29.5t-37.5 82t44 79.5h-133v112h331v-112h-3q-97 0 -97 -71q0 -61 89 -61h40v-118h-48q-44 0 -69.5 -15t-25.5 -42q0 -56 92 -56q73 0 116.5 36 t43.5 110v329h240z" />
<glyph horiz-adv-x="558" d="M-30 671h618v-112h-100v-559h-142v190l-164 -164h-177l341 325v1h-169q-18 0 -26 -9t-8 -37t8 -68h-112q-34 57 -34 130q0 45 28 70.5t82 25.5h231v95h-376v112z" />
<glyph horiz-adv-x="582" d="M612 671v-112h-100v-559h-142v222l-182 -222h-179l163 194q-107 38 -107 191v174h-95v112h642zM370 386v173h-163v-180q0 -86 74 -86q39 0 64 24.5t25 68.5z" />
<glyph horiz-adv-x="844" d="M874 559h-362v-97q48 41 117 41q87 0 136 -56.5t49 -138.5q0 -100 -62 -152.5t-156 -52.5q-17 0 -25 1v113q6 -1 16 -1q86 0 86 91q0 35 -19.5 59.5t-55.5 24.5t-61 -24.5t-25 -68.5v-298h-142v222l-182 -222h-179l163 194q-107 38 -107 191v174h-95v112h904v-112z M370 386v173h-163v-180q0 -86 74 -86q39 0 64 24.5t25 68.5z" />
<glyph horiz-adv-x="633" d="M663 671v-112h-100v-559h-142v135l-203 -200h-194l158 154q-63 23 -105 77.5t-42 125.5q0 94 63.5 156.5t168.5 62.5q46 0 81 -8v-122q-30 10 -58.5 10t-45.5 -5l166 -137q10 22 10 42l1 -1v269h-451v112h693zM193 346q-15 -24 -15 -64.5t30 -69t74 -28.5t81 20z" />
<glyph horiz-adv-x="606" d="M636 671v-112h-100v-559h-138v111l-172 -151h-193l365 313v44h-153v-126h-122l-36 77q-27 57 -27 88q0 52 46 65v93q0 47 -46 47q-26 0 -54 -14v109q38 20 86 20q153 0 153 -145v-103h153l-1 243h239z" />
<glyph horiz-adv-x="610" d="M-30 671h670v-112h-100v-559h-138v108l-171 -148h-198l369 313v32h-158v-119h-119l-36 80q-29 66 -29 91q0 52 45 64v138h-135v112zM244 428h158v131h-158v-131z" />
<glyph horiz-adv-x="650" d="M316 240q57 0 90 33t33 99v187h-130q21 -32 21 -86q0 -118 -131 -162q30 -71 117 -71zM191 480q0 50 -29 79h-192v112h710v-112h-100v-559h-141v178l-229 -223h-197l185 179q-65 27 -108.5 90t-54.5 157q156 22 156 99z" />
<glyph horiz-adv-x="612" d="M642 671v-112h-100v-559h-142v135l-181 -200h-187l155 162q-64 20 -103.5 70.5t-39.5 124.5q0 92 61.5 152.5t161.5 60.5q40 0 70 -8v-122q-34 9 -66 9t-58 -24t-26 -67.5t26.5 -69t71.5 -25.5t80 26.5t35 66.5v268h-430v112h672z" />
<glyph horiz-adv-x="766" d="M554 671h242v-112h-100v-559h-142v188l-244 -205l-109 78l207 168q-65 22 -98 36l-172 -126l-112 83l163 111q-97 73 -97 177q0 71 54.5 121t143 50t144.5 -49t56 -131.5t-77 -143.5q64 -23 141 -45v359zM333.5 546.5q-16.5 19.5 -43 19.5t-42.5 -16.5t-16 -43.5 q0 -52 63 -93q55 33 55 89q0 25 -16.5 44.5z" />
<glyph horiz-adv-x="822" d="M852 671v-112h-100v-559h-141v277l-123 -167h-164l181 232q-31 11 -64 11q-73 0 -186 -53q-2 -1 -3.5 -1.5t-16 -9t-30.5 -12t-19.5 -3.5t-5.5 -1l163 -273h-160l-163 269v98h71q92 0 92 77v115h-213v112h882zM323 559v-113q60 22 118 22q107 0 170 -57v148h-288z" />
<glyph horiz-adv-x="697" d="M604 401h-345q-37 0 -37 -27q0 -29 34 -52q51 12 116 12q131 0 205.5 -62t74.5 -167q0 -49 -9 -80h-126q8 26 8 68.5t-17 70.5l-96 -152h-152l152 206q-24 3 -52 3q-70 0 -114.5 -38t-44.5 -103t62.5 -116t175.5 -51q41 0 57 3v-104q-28 -4 -80.5 -4t-116.5 16.5 t-118.5 49t-87.5 89t-33 129.5q0 120 94 186q-16 7 -31 18t-31 37t-16 58q0 58 43 89t111 31h234v48h-494v112h757v-112h-123v-158z" />
<glyph horiz-adv-x="824" d="M855 559h-364v-109q44 39 106 39q89 0 143.5 -55.5t54.5 -145t-62 -145t-159 -55.5q-15 0 -23 1v113q6 -1 16 -1q41 0 63.5 25t22.5 62.5t-21 63t-58.5 25.5t-60 -25.5t-22.5 -67.5v-284h-142v118l-131 -163h-167l118 135q-58 20 -91 69.5t-33 115.5q0 93 62 148.5 t159 55.5q14 0 23 -1v-113q-6 1 -16 1q-41 0 -63.5 -25t-22.5 -62.5t21 -63t58.5 -25.5t60 25.5t22.5 67.5v276h-379v112h885v-112zM315 -56q31 0 53.5 -22t22.5 -54t-22.5 -54t-53.5 -22t-53.5 22t-22.5 54t22.5 54t53.5 22z" />
<glyph horiz-adv-x="822" d="M852 671v-112h-100v-559h-142v111q-34 -31 -130 -106.5t-142 -113.5h-209l192 156q-192 36 -276 249v110h69q34 0 47 14.5t13 52.5v86h-204v112h882zM610 559h-296v-114q0 -62 -22 -97q-23 -35 -84 -48q22 -68 79 -102.5t137 -34.5t138 32.5t58 105.5q0 46 -21.5 73.5 t-53.5 27.5t-49 -12t-17 -30.5t11 -29.5t26 -11t24 3v-94q-26 -8 -51 -8q-60 0 -100 38t-40 101.5t50 105t125 41.5q45 0 86 -18v71zM535 -56q31 0 53.5 -22t22.5 -54t-22.5 -54t-53.5 -22t-53.5 22t-22.5 54t22.5 54t53.5 22z" />
<glyph horiz-adv-x="600" d="M-30 671h660v-112h-100v-559h-140v129l-172 -149h-189l361 319v260h-111v-214q0 -72 -40.5 -107t-96.5 -35t-97 14v110q22 -12 49 -12q44 0 44 46v198h-168v112zM315 -56q31 0 53.5 -22t22.5 -54t-22.5 -54t-53.5 -22t-53.5 22t-22.5 54t22.5 54t53.5 22z" />
<glyph horiz-adv-x="644" d="M674 671v-112h-100v-559h-140v140l-204 -185h-187l140 123q-64 14 -103.5 56t-39.5 102.5t42.5 98.5t114.5 43q-68 2 -105.5 29.5t-37.5 73.5t30 78h-114v112h704zM434 341v218h-207q-31 -26 -31 -61q0 -61 89 -61h40v-118h-48q-44 0 -69.5 -18.5t-25.5 -50t25.5 -48 t66.5 -16.5q72 0 116 39.5t44 115.5zM355 -56q31 0 53.5 -22t22.5 -54t-22.5 -54t-53.5 -22t-53.5 22t-22.5 54t22.5 54t53.5 22z" />
<glyph horiz-adv-x="745" d="M-30 671h805v-112h-237v-155h-209q-51 0 -51 -39q0 -24 27 -30.5t89 -6.5q200 0 200 -153q-1 -51 -31 -91t-84 -62l134 -171h-170l-82 129l-82 -129h-170l128 163q-52 13 -97 38v130q106 -65 217 -65q47 0 72 14t25 38.5t-23 33t-73 8.5t-84.5 7t-66 23t-50 47t-18.5 74 q0 77 56.5 115.5t134.5 38.5h68v43h-428v112zM659 441q35 0 58.5 -23.5t23.5 -58.5t-23.5 -58.5t-58.5 -23.5t-58.5 23.5t-23.5 58.5t23.5 58.5t58.5 23.5zM40 45q32 0 54 -22.5t22 -53.5t-22 -53.5t-54 -22.5t-54 22.5t-22 53.5t22 53.5t54 22.5z" />
<glyph horiz-adv-x="660" d="M690 671v-112h-100v-559h-140v167l-214 -212h-184l150 145q-58 16 -90.5 58t-32.5 95q0 72 53 106h-112v115h359v-115q-165 0 -165 -86q0 -33 25 -51t74.5 -18t93 34.5t43.5 84.5v236h-480v112h720zM365 -56q31 0 53.5 -22t22.5 -54t-22.5 -54t-53.5 -22t-53.5 22 t-22.5 54t22.5 54t53.5 22z" />
<glyph horiz-adv-x="712" d="M742 559h-139v-85q74 -50 74 -145.5t-48 -160t-132 -95.5l136 -173h-170l-80 129l-84 -129h-170l126 161q-70 18 -112.5 58.5t-42.5 99.5t37.5 92t105.5 37q-64 1 -98.5 37.5t-34.5 87.5t33 86h-163v112h762v-112zM469 559h-176q-42 -33 -42 -82q0 -30 19 -50t53 -20h37 v-118h-37q-81 0 -81 -60q0 -29 31.5 -46.5t81.5 -17.5q81 0 130 39.5t49 105.5q0 41 -22 62.5t-54.5 21.5t-50.5 -5v111q23 6 62 8v51zM60 94q32 0 54 -22t22 -54t-22 -54t-54 -22t-54 22t-22 54t22 54t54 22z" />
<glyph horiz-adv-x="658" d="M-30 671h718v-112h-100v-559h-142v56l-180 -156h-179l359 308v140h-140q57 -36 57 -105t-59.5 -113.5t-138 -44.5t-135.5 21v124q47 -25 101 -25q99 0 99 64q0 79 -143 79v115h359v96h-476v112zM422 -56q32 0 54 -22t22 -54t-22 -54t-54 -22t-54 22t-22 54t22 54t54 22z " />
<glyph horiz-adv-x="881" d="M911 671v-112h-100v-559h-142v60l-170 -178h-188l358 326v21h-185q8 -23 8 -58q0 -76 -51.5 -122.5t-126.5 -46.5t-129 31v-84h-140v242h130l1 -7q18 -36 47.5 -56.5t61.5 -20.5t50 14.5t18 44t-23 40.5t-64 11q-207 0 -207 143q0 79 56 117.5t144 38.5h66v43h-355v112 h941zM266 336h403v223h-204v-155h-200q-63 0 -63 -36q0 -32 64 -32zM656 -56q32 0 54 -22t22 -54t-22 -54t-54 -22t-54 22t-22 54t22 54t54 22z" />
<glyph horiz-adv-x="710" d="M740 671v-112h-100v-559h-142v66l-192 -166h-191l383 316v32h-92q-18 -70 -81 -115.5t-147 -45.5q-45 0 -89.5 11t-68.5 26v127q72 -43 147 -43q104 0 104 91q0 81 -92 81q-46 0 -90 -19v119q42 17 114.5 17t127.5 -35.5t73 -101.5h94v199h-528v112h770zM465 -56 q31 0 53.5 -22t22.5 -54t-22.5 -54t-53.5 -22t-53.5 22t-22.5 54t22.5 54t53.5 22z" />
<glyph horiz-adv-x="580" d="M509 559v-202q-42 7 -95 7q-84 0 -127.5 -32t-43.5 -87.5t42.5 -85t115 -29.5t144.5 43v-127q-37 -18 -66 -26l125 -160h-170l-80 129l-84 -129h-170l138 176q-66 28 -102 83t-36 131q0 93 68 157.5t191 68.5h10v83h-389v112h630v-112h-101zM126 18q0 -32 -22 -54 t-54 -22t-54 22t-22 54t22 54t54 22t54 -22t22 -54z" />
<glyph horiz-adv-x="640" d="M670 559h-223v-91q73 -20 116 -71.5t43 -122t-33.5 -119.5t-94.5 -75l135 -172h-170l-82 129l-82 -129h-170l132 168q-66 24 -103.5 74t-37.5 121q0 90 59 142.5t147 63.5v82h-337v112h701v-112zM274.5 196q32.5 -27 82 -27t78.5 27t29 74.5t-29.5 72.5t-79.5 25.5 t-81.5 -24t-31.5 -73t32.5 -75.5zM55 125q31 0 53.5 -22.5t22.5 -53.5t-22.5 -53.5t-53.5 -22.5t-53.5 22.5t-22.5 53.5t22.5 53.5t53.5 22.5z" />
<glyph horiz-adv-x="639" d="M394 328q200 0 200 -153q-1 -51 -31 -91t-84 -62l134 -171h-170l-82 129l-82 -129h-170l128 163q-52 13 -97 38v130q106 -65 217 -65q47 0 72 14t25 37t-17.5 32t-59.5 11h-29q-81 0 -140 30q-32 16 -50.5 47t-18.5 74q0 77 56.5 115.5t134.5 38.5h68v43h-427v112h698 v-112h-131v-152h-1l1 -3h-209q-51 0 -51 -39q0 -24 27 -30.5t89 -6.5zM48 55q32 0 54 -22.5t22 -53.5t-22 -53.5t-54 -22.5t-54 22.5t-22 53.5t22 53.5t54 22.5z" />
<glyph horiz-adv-x="638" d="M534 559v-192q-47 11 -99.5 11t-93 -11t-69.5 -41t-29 -78.5t37 -87t96 -38.5q38 0 63.5 15t25.5 39q0 46 -57 46q-42 0 -72 -22v99q44 23 109 23t109.5 -37t44.5 -96q0 -116 -113 -160l132 -169h-170l-82 129l-82 -129h-170l134 171q-69 29 -108.5 88t-39.5 132 q0 116 79 174.5t205 60.5h10v73h-425v112h698v-112h-133zM137 9q0 -31 -22.5 -53.5t-53.5 -22.5t-53.5 22.5t-22.5 53.5t22.5 53.5t53.5 22.5t53.5 -22.5t22.5 -53.5z" />
<glyph horiz-adv-x="764" d="M794 671v-112h-100v-559h-141v131l-198 -158h-207l405 325v261h-117v-175q0 -96 -53 -146.5t-147.5 -50.5t-145 49t-50.5 145v178h-70v112h824zM297 372v187h-117v-188q0 -66 58.5 -66t58.5 67zM465 -56q31 0 53.5 -22t22.5 -54t-22.5 -54t-53.5 -22t-53.5 22t-22.5 54 t22.5 54t53.5 22z" />
<glyph horiz-adv-x="638" d="M668 671v-112h-100v-559h-142v195l-274 -168l-71 108l288 173q-54 61 -141.5 61t-167.5 -50v127q30 20 79 32.5t93 12.5q119 0 194 -77v145h-456v112h698zM285 -6q31 0 53.5 -22t22.5 -54t-22.5 -54t-53.5 -22t-53.5 22t-22.5 54t22.5 54t53.5 22z" />
<glyph horiz-adv-x="674" d="M299 -132q0 32 22.5 54t53.5 22t53.5 -22t22.5 -54t-22.5 -54t-53.5 -22t-53.5 22t-22.5 54zM409 507q0 -147 -227 -218q28 -68 127 -68q60 0 106.5 32.5t46.5 107.5v310h242v-112h-100v-559h-142v162l-211 -207h-199l166 155q-82 24 -136.5 91t-61.5 165 q141 36 199.5 66.5t58.5 81t-43 50.5q-45 0 -45 -52q0 -28 12 -55h-134q-11 32 -11 67q0 68 46.5 112.5t127.5 44.5t129.5 -46t48.5 -128z" />
<glyph horiz-adv-x="584" d="M249 -132q0 32 22.5 54t53.5 22t53.5 -22t22.5 -54t-22.5 -54t-53.5 -22t-53.5 22t-22.5 54zM-30 671h644v-112h-112v-176h-208q-53 0 -84.5 -28t-31.5 -75.5t27 -74t71 -26.5q94 0 110 100h138v-289h-140v125l-161 -170h-181l129 130q-63 24 -99.5 77.5t-36.5 125.5 q0 97 65.5 157t187.5 60h71v64h-389v112z" />
<glyph horiz-adv-x="649" d="M679 671v-112h-100v-559h-140v146l-194 -191h-191l141 131q-65 13 -107.5 54t-42.5 98.5t41.5 92t115.5 37.5q-68 2 -105.5 29.5t-37.5 82t44 79.5h-133v112h331v-112h-3q-97 0 -97 -71q0 -61 89 -61h40v-118h-48q-44 0 -69.5 -15t-25.5 -42q0 -56 92 -56q73 0 116.5 36 t43.5 110v329h240zM365 -56q31 0 53.5 -22t22.5 -54t-22.5 -54t-53.5 -22t-53.5 22t-22.5 54t22.5 54t53.5 22z" />
<glyph horiz-adv-x="558" d="M-30 671h618v-112h-100v-559h-142v190l-164 -164h-177l341 325v1h-169q-18 0 -26 -9t-8 -37t8 -68h-112q-34 57 -34 130q0 45 28 70.5t82 25.5h231v95h-376v112zM235 -26q31 0 53.5 -22t22.5 -54t-22.5 -54t-53.5 -22t-53.5 22t-22.5 54t22.5 54t53.5 22z" />
<glyph horiz-adv-x="582" d="M612 671v-112h-100v-559h-142v222l-182 -222h-179l163 194q-107 38 -107 191v174h-95v112h642zM370 386v173h-163v-180q0 -86 74 -86q39 0 64 24.5t25 68.5zM265 -56q31 0 53.5 -22t22.5 -54t-22.5 -54t-53.5 -22t-53.5 22t-22.5 54t22.5 54t53.5 22z" />
<glyph horiz-adv-x="844" d="M874 559h-362v-97q48 41 117 41q87 0 136 -56.5t49 -138.5q0 -100 -62 -152.5t-156 -52.5q-17 0 -25 1v113q6 -1 16 -1q86 0 86 91q0 35 -19.5 59.5t-55.5 24.5t-61 -24.5t-25 -68.5v-298h-142v222l-182 -222h-179l163 194q-107 38 -107 191v174h-95v112h904v-112z M370 386v173h-163v-180q0 -86 74 -86q39 0 64 24.5t25 68.5zM265 -56q31 0 53.5 -22t22.5 -54t-22.5 -54t-53.5 -22t-53.5 22t-22.5 54t22.5 54t53.5 22z" />
<glyph horiz-adv-x="633" d="M663 671v-112h-100v-559h-142v135l-203 -200h-194l158 154q-63 23 -105 77.5t-42 125.5q0 94 63.5 156.5t168.5 62.5q46 0 81 -8v-122q-30 10 -58.5 10t-45.5 -5l166 -137q10 22 10 42l1 -1v269h-451v112h693zM193 346q-15 -24 -15 -64.5t30 -69t74 -28.5t81 20zM345 -56 q31 0 53.5 -22t22.5 -54t-22.5 -54t-53.5 -22t-53.5 22t-22.5 54t22.5 54t53.5 22z" />
<glyph horiz-adv-x="606" d="M636 671v-112h-100v-559h-138v111l-172 -151h-193l365 313v44h-153v-126h-122l-36 77q-27 57 -27 88q0 52 46 65v93q0 47 -46 47q-26 0 -54 -14v109q38 20 86 20q153 0 153 -145v-103h153l-1 243h239zM335 -56q31 0 53.5 -22t22.5 -54t-22.5 -54t-53.5 -22t-53.5 22 t-22.5 54t22.5 54t53.5 22z" />
<glyph horiz-adv-x="610" d="M-30 671h670v-112h-100v-559h-138v108l-171 -148h-198l369 313v32h-158v-119h-119l-36 80q-29 66 -29 91q0 52 45 64v138h-135v112zM244 428h158v131h-158v-131zM335 -56q31 0 53.5 -22t22.5 -54t-22.5 -54t-53.5 -22t-53.5 22t-22.5 54t22.5 54t53.5 22z" />
<glyph horiz-adv-x="650" d="M259 -132q0 32 22.5 54t53.5 22t53.5 -22t22.5 -54t-22.5 -54t-53.5 -22t-53.5 22t-22.5 54zM316 240q57 0 90 33t33 99v187h-130q21 -32 21 -86q0 -118 -131 -162q30 -71 117 -71zM191 480q0 50 -29 79h-192v112h710v-112h-100v-559h-141v178l-229 -223h-197l185 179 q-65 27 -108.5 90t-54.5 157q156 22 156 99z" />
<glyph horiz-adv-x="612" d="M642 671v-112h-100v-559h-142v135l-181 -200h-187l155 162q-64 20 -103.5 70.5t-39.5 124.5q0 92 61.5 152.5t161.5 60.5q40 0 70 -8v-122q-34 9 -66 9t-58 -24t-26 -67.5t26.5 -69t71.5 -25.5t80 26.5t35 66.5v268h-430v112h672zM345 -56q31 0 53.5 -22t22.5 -54 t-22.5 -54t-53.5 -22t-53.5 22t-22.5 54t22.5 54t53.5 22z" />
<glyph horiz-adv-x="585" d="M491 559v-109q44 39 106 39q98 0 153 -66l-101 -103q-16 57 -78 57q-35 0 -57.5 -25.5t-22.5 -67.5v-284h-142v118l-131 -163h-167l118 135q-58 20 -91 69.5t-33 115.5q0 93 62 148.5t159 55.5q14 0 23 -1v-113q-6 1 -16 1q-41 0 -63.5 -25t-22.5 -62.5t21 -63 t58.5 -25.5t60 25.5t22.5 67.5v276h-379v112h645v-112h-124z" />
<glyph horiz-adv-x="597" d="M489 220q-60 0 -100 38t-40 101.5t50 105t125 41.5q107 0 163 -52t56 -135q0 -61 -33 -112t-100 -105l-262 -211h-209l192 156q-200 33 -286 249v110h69q34 0 47 14.5t13 52.5v86h-204v112h657v-112h-313v-114q0 -62 -22 -97q-23 -35 -84 -48q22 -68 79 -102.5t137 -34.5 t138 32.5t58 105.5q0 46 -21.5 73.5t-53.5 27.5t-49 -12t-17 -30.5t11 -29.5t26 -11t24 3v-94q-26 -8 -51 -8z" />
<glyph horiz-adv-x="374" d="M463 363l62 -116l-307 -267h-189zM138 361v198h-168v112h434v-112h-125v-214q0 -72 -40.5 -107t-96.5 -35t-97 14v110q22 -12 49 -12q44 0 44 46z" />
<glyph horiz-adv-x="380" d="M79.5 134q-39.5 42 -39.5 102.5t42.5 98.5t114.5 43q-68 2 -105.5 29.5t-37.5 73.5t30 78h-114v112h440v-112h-183q-31 -26 -31 -61q0 -61 89 -61h40v-118h-48q-44 0 -69.5 -18.5t-25.5 -50t25.5 -48t66.5 -16.5q125 0 213 179l77 -126l-334 -284h-187l140 123 q-64 14 -103.5 56z" />
<glyph horiz-adv-x="419" d="M79 253q0 72 53 106h-112v115h359v-115q-165 0 -165 -86q0 -33 25 -51t70.5 -18t92.5 36t86 98l67 -83l-309 -300h-184l150 145q-57 10 -95 53.5t-38 99.5zM449 671v-112h-479v112h479z" />
<glyph horiz-adv-x="488" d="M87 463h534v-115h-315q57 -36 57 -105t-59.5 -113.5t-138 -44.5t-135.5 21v124q47 -25 101 -25q99 0 99 64q0 79 -143 79v115zM87 -100l452 388l78 -84l-351 -304h-179zM518 671v-112h-548v112h548z" />
<glyph horiz-adv-x="628" d="M492 171q0 -76 -51.5 -122.5t-126.5 -46.5t-129 31v-84h-140v242h130l1 -7q18 -36 47.5 -56.5t61.5 -20.5t50 14.5t18 44t-23 40.5t-64 11q-207 0 -207 143q0 79 56 117.5t144 38.5h66v43h-355v112h688v-112h-193v-155h-200q-63 0 -63 -36q0 -32 64 -32h463v-72l76 -93 l-306 -289h-188l380 347h-207q8 -23 8 -58z" />
<glyph horiz-adv-x="522" d="M178 87q-45 0 -89.5 11t-68.5 26v127q72 -43 147 -43q104 0 104 91q0 81 -92 81q-46 0 -90 -19v119q42 17 114.5 17t127.5 -35.5t73 -101.5h176v-84l65 -90l-339 -286h-191l430 348h-139q-18 -70 -81 -115.5t-147 -45.5zM553 671v-112h-583v112h583z" />
<glyph horiz-adv-x="525" d="M454 559v-202q-42 7 -95 7q-84 0 -127.5 -32t-43.5 -87.5t42.5 -85t115 -29.5t144.5 43v-127q-37 -18 -66 -26l125 -160h-170l-80 129l-84 -129h-170l138 176q-66 28 -102 83t-36 131q0 93 68 157.5t191 68.5h10v83h-344v112h585v-112h-101zM231 -205h143l145 -176h-168z " />
<glyph horiz-adv-x="575" d="M605 559h-223v-91q73 -20 116 -71.5t43 -122t-33.5 -119.5t-94.5 -75l135 -172h-170l-82 129l-82 -129h-170l132 168q-66 24 -103.5 74t-37.5 121q0 90 59 142.5t147 63.5v82h-271v112h635v-112zM209.5 196q32.5 -27 82 -27t78.5 27t29 74.5t-29.5 72.5t-79.5 25.5 t-81.5 -24t-31.5 -73t32.5 -75.5zM231 -157h143l145 -176h-168z" />
<glyph horiz-adv-x="539" d="M294 328q200 0 200 -153q-1 -51 -31 -91t-84 -62l134 -171h-170l-82 129l-82 -129h-170l128 163q-52 13 -97 38v130q106 -65 217 -65q47 0 72 14t25 37t-17.5 32t-59.5 11h-29q-81 0 -140 30q-32 16 -50.5 47t-18.5 74q0 77 56.5 115.5t134.5 38.5h68v43h-328v112h599 v-112h-131v-152h-1l1 -3h-209q-51 0 -51 -39q0 -24 27 -30.5t89 -6.5zM194 -214h143l145 -176h-168z" />
<glyph horiz-adv-x="568" d="M464 559v-192q-47 11 -99.5 11t-93 -11t-69.5 -41t-29 -78.5t37 -87t96 -38.5q38 0 63.5 15t25.5 39q0 46 -57 46q-42 0 -72 -22v99q44 23 109 23t109.5 -37t44.5 -96q0 -116 -113 -160l132 -169h-170l-82 129l-82 -129h-170l134 171q-69 29 -108.5 88t-39.5 132 q0 116 79 174.5t205 60.5h10v73h-354v112h627v-112h-133zM234 -205h143l145 -176h-168z" />
<glyph horiz-adv-x="484" d="M612 354l39 -136l-306 -245h-207zM426 559v-175q0 -96 -53 -146.5t-147.5 -50.5t-145 49t-50.5 145v178h-70v112h554v-112h-88zM170 559v-188q0 -66 58.5 -66t58.5 67v187h-117z" />
<glyph horiz-adv-x="419" d="M232 491q108 0 180 -63t98 -181l-358 -220l-71 108l282 170q-51 64 -137 64t-166 -50v127q30 20 79 32.5t93 12.5zM449 671v-112h-479v112h479z" />
<glyph horiz-adv-x="462" d="M409 507q0 -147 -227 -218q28 -68 127 -68q134 0 233 169l85 -96l-376 -339h-190l167 155q-82 15 -141.5 86t-66.5 170q141 36 199.5 66.5t58.5 81t-43 50.5q-45 0 -45 -52q0 -28 12 -55h-134q-11 32 -11 67q0 68 46.5 112.5t127.5 44.5t129.5 -46t48.5 -128z" />
<glyph horiz-adv-x="584" d="M-30 671h644v-112h-112v-176h-208q-53 0 -84.5 -28t-31.5 -75.5t27 -74t71 -26.5q94 0 110 100h138v-289h-140v125l-161 -170h-181l129 130q-63 24 -99.5 77.5t-36.5 125.5q0 97 65.5 157t187.5 60h71v64h-389v112zM552 -296h-168l-120 176h143z" />
<glyph horiz-adv-x="452" d="M96.5 129.5q-51.5 43.5 -51.5 105t41.5 96t115.5 37.5q-68 2 -105.5 29.5t-37.5 82t44 79.5h-133v112h331v-112h-3q-97 0 -97 -71q0 -61 89 -61h40v-118h-48q-44 0 -69.5 -15t-25.5 -42q0 -56 92 -56q154 0 220 155l96 -71l-330 -325h-191l146 131q-72 0 -123.5 43.5z " />
<glyph horiz-adv-x="343" d="M177 352q-18 0 -26 -9t-8 -37t8 -68h-112q-34 57 -34 130q0 45 28 70.5t82 25.5h360v-83l34 -53l-327 -302h-177l364 326h-192zM373 671v-112h-403v112h403z" />
<glyph horiz-adv-x="323" d="M65 385v174h-95v112h383v-112h-146v-180q0 -86 74 -86q70 0 115 99l67 -68l-275 -324h-179l168 194q-53 14 -82.5 63.5t-29.5 127.5z" />
<glyph horiz-adv-x="615" d="M512 559v-97q48 41 117 41q124 0 180 -120l-110 -72q-9 34 -34.5 57t-64 23t-63.5 -24.5t-25 -68.5v-298h-142v222l-182 -222h-179l163 194q-107 38 -107 191v174h-95v112h675v-112h-133zM207 559v-180q0 -86 74 -86q39 0 64 24.5t25 68.5v173h-163z" />
<glyph horiz-adv-x="377" d="M35 292q0 94 63.5 156.5t168.5 62.5q46 0 81 -8v-122q-30 10 -58.5 10t-45.5 -5l166 -137q20 27 38 61l84 -73l-314 -302h-194l162 154q-65 20 -108 75.5t-43 127.5zM193 346q-15 -24 -15 -64.5t30 -69t76.5 -28.5t77.5 20zM407 671v-112h-437v112h437z" />
<glyph horiz-adv-x="398" d="M245 428h327v-111l-316 -357h-183l345 357h-173v-126h-122l-36 77q-27 57 -27 88q0 52 46 65v93q0 47 -46 47q-26 0 -54 -14v109q38 20 86 20q153 0 153 -145v-103z" />
<glyph horiz-adv-x="427" d="M244 428h334v-123l-297 -345h-185l318 345h-170v-119h-119l-36 80q-29 66 -29 91q0 52 45 64v138h-135v112h487v-112h-213v-131z" />
<glyph horiz-adv-x="388" d="M418 559h-109q21 -32 21 -86q0 -118 -131 -162q30 -71 116.5 -71t163.5 123l69 -80l-338 -328h-197l185 179q-65 27 -108.5 90t-54.5 157q156 22 156 99q0 50 -29 79h-192v112h448v-112z" />
<glyph horiz-adv-x="375" d="M405 559h-435v112h435v-112zM337 375q-34 9 -66 9t-58 -24t-26 -67.5t26.5 -69t76.5 -25.5q95 0 166 133l73 -83l-300 -313h-187l155 162q-65 15 -109 65.5t-44 136t61.5 146t161.5 60.5q40 0 70 -8v-122z" />
<glyph horiz-adv-x="559" d="M323 559v-113q60 22 132 22t122 -29.5t91 -84.5l-180 -244h-164l182 233q-32 10 -65 10q-73 0 -186 -53q-2 -1 -3.5 -1.5t-16 -9t-30.5 -12t-19.5 -3.5t-5.5 -1l163 -273h-160l-163 269v98h71q92 0 92 77v115h-213v112h882v-112h-529z" />
<glyph horiz-adv-x="585" d="M491 559v-109q44 39 106 39q98 0 153 -66l-101 -103q-16 57 -78 57q-35 0 -57.5 -25.5t-22.5 -67.5v-284h-142v118l-131 -163h-167l118 135q-58 20 -91 69.5t-33 115.5q0 93 62 148.5t159 55.5q14 0 23 -1v-113q-6 1 -16 1q-41 0 -63.5 -25t-22.5 -62.5t21 -63 t58.5 -25.5t60 25.5t22.5 67.5v276h-379v112h645v-112h-124zM315 -56q31 0 53.5 -22t22.5 -54t-22.5 -54t-53.5 -22t-53.5 22t-22.5 54t22.5 54t53.5 22z" />
<glyph horiz-adv-x="597" d="M489 220q-60 0 -100 38t-40 101.5t50 105t125 41.5q107 0 163 -52t56 -135q0 -61 -33 -112t-100 -105l-262 -211h-209l192 156q-200 33 -286 249v110h69q34 0 47 14.5t13 52.5v86h-204v112h657v-112h-313v-114q0 -62 -22 -97q-23 -35 -84 -48q22 -68 79 -102.5t137 -34.5 t138 32.5t58 105.5q0 46 -21.5 73.5t-53.5 27.5t-49 -12t-17 -30.5t11 -29.5t26 -11t24 3v-94q-26 -8 -51 -8zM575 -36q31 0 53.5 -22t22.5 -54t-22.5 -54t-53.5 -22t-53.5 22t-22.5 54t22.5 54t53.5 22z" />
<glyph horiz-adv-x="374" d="M425 34q31 0 53.5 -22t22.5 -54t-22.5 -54t-53.5 -22t-53.5 22t-22.5 54t22.5 54t53.5 22zM463 363l62 -116l-307 -267h-189zM138 361v198h-168v112h434v-112h-125v-214q0 -72 -40.5 -107t-96.5 -35t-97 14v110q22 -12 49 -12q44 0 44 46z" />
<glyph horiz-adv-x="380" d="M455 14q31 0 53.5 -22t22.5 -54t-22.5 -54t-53.5 -22t-53.5 22t-22.5 54t22.5 54t53.5 22zM79.5 134q-39.5 42 -39.5 102.5t42.5 98.5t114.5 43q-68 2 -105.5 29.5t-37.5 73.5t30 78h-114v112h440v-112h-183q-31 -26 -31 -61q0 -61 89 -61h40v-118h-48q-44 0 -69.5 -18.5 t-25.5 -50t25.5 -48t66.5 -16.5q125 0 213 179l77 -126l-334 -284h-187l140 123q-64 14 -103.5 56z" />
<glyph horiz-adv-x="655" d="M-30 671h715v-112h-252v-152h-1l1 -3h-209q-51 0 -51 -39q0 -24 27 -30.5t89 -6.5q200 0 200 -153q-2 -57 -38 -100t-102 -62h13l176 -199h-170l-92 119l-92 -119h-170l168 190q-81 11 -147 48v130q106 -65 217 -65q47 0 72 14t25 38.5t-23 33t-73 8.5t-84.5 7t-66 23 t-50 47t-18.5 74q0 77 56.5 115.5t134.5 38.5h68v43h-323v112zM552 435q32 0 54 -22.5t22 -53.5t-22 -53.5t-54 -22.5t-54 22.5t-22 53.5t22 53.5t54 22.5zM241 -239h143l145 -176h-168zM134 -226q32 0 54 -22t22 -54t-22 -54t-54 -22t-54 22t-22 54t22 54t54 22z" />
<glyph horiz-adv-x="419" d="M455 24q31 0 53.5 -22t22.5 -54t-22.5 -54t-53.5 -22t-53.5 22t-22.5 54t22.5 54t53.5 22zM79 253q0 72 53 106h-112v115h359v-115q-165 0 -165 -86q0 -33 25 -51t70.5 -18t92.5 36t86 98l67 -83l-309 -300h-184l150 145q-57 10 -95 53.5t-38 99.5zM449 671v-112h-479 v112h479z" />
<glyph horiz-adv-x="657" d="M687 559h-139v-85q74 -50 74 -148t-54 -165t-146 -95l174 -197h-170l-92 119l-92 -119h-170l163 185q-83 12 -136.5 55.5t-53.5 106t37.5 95.5t105.5 37q-64 1 -98.5 37.5t-34.5 87.5t33 86h-118v112h717v-112zM414 559h-176q-42 -33 -42 -82q0 -30 19 -50t53 -20h37 v-118h-37q-81 0 -81 -60q0 -29 31.5 -46.5t81.5 -17.5q81 0 130 39.5t49 105.5q0 41 -22 62.5t-54.5 21.5t-50.5 -5v111q23 6 62 8v51zM333 -175h143l145 -176h-168zM235 -173q31 0 53.5 -22.5t22.5 -53.5t-22.5 -53.5t-53.5 -22.5t-53.5 22.5t-22.5 53.5t22.5 53.5 t53.5 22.5z" />
<glyph horiz-adv-x="488" d="M87 463h534v-115h-315q57 -36 57 -105t-59.5 -113.5t-138 -44.5t-135.5 21v124q47 -25 101 -25q99 0 99 64q0 79 -143 79v115zM87 -100l452 388l78 -84l-351 -304h-179zM525 4q31 0 53.5 -22t22.5 -54t-22.5 -54t-53.5 -22t-53.5 22t-22.5 54t22.5 54t53.5 22zM518 671 v-112h-548v112h548z" />
<glyph horiz-adv-x="628" d="M745 -26q31 0 53.5 -22t22.5 -54t-22.5 -54t-53.5 -22t-53.5 22t-22.5 54t22.5 54t53.5 22zM492 171q0 -76 -51.5 -122.5t-126.5 -46.5t-129 31v-84h-140v242h130l1 -7q18 -36 47.5 -56.5t61.5 -20.5t50 14.5t18 44t-23 40.5t-64 11q-207 0 -207 143q0 79 56 117.5 t144 38.5h66v43h-355v112h688v-112h-193v-155h-200q-63 0 -63 -36q0 -32 64 -32h463v-72l76 -93l-306 -289h-188l380 347h-207q8 -23 8 -58z" />
<glyph horiz-adv-x="522" d="M561 4q31 0 53.5 -22t22.5 -54t-22.5 -54t-53.5 -22t-53.5 22t-22.5 54t22.5 54t53.5 22zM178 87q-45 0 -89.5 11t-68.5 26v127q72 -43 147 -43q104 0 104 91q0 81 -92 81q-46 0 -90 -19v119q42 17 114.5 17t127.5 -35.5t73 -101.5h176v-84l65 -90l-339 -286h-191 l430 348h-139q-18 -70 -81 -115.5t-147 -45.5zM553 671v-112h-583v112h583z" />
<glyph horiz-adv-x="600" d="M529 559v-202q-42 7 -95 7q-84 0 -127.5 -32t-43.5 -87.5t42.5 -85t115 -29.5t144.5 43v-127q-37 -18 -66 -26l125 -160h-170l-80 129l-84 -129h-170l138 176q-66 28 -102 83t-36 131q0 93 68 157.5t191 68.5h10v83h-419v112h660v-112h-101zM306 -205h143l145 -176h-168z M50 84q32 0 54 -22t22 -54t-22 -54t-54 -22t-54 22t-22 54t22 54t54 22z" />
<glyph horiz-adv-x="680" d="M710 559h-223v-91q73 -20 116 -71.5t43 -122t-33.5 -119.5t-94.5 -75l135 -172h-170l-82 129l-82 -129h-170l132 168q-66 24 -103.5 74t-37.5 121q0 90 59 142.5t147 63.5v82h-376v112h740v-112zM314.5 196q32.5 -27 82 -27t78.5 27t29 74.5t-29.5 72.5t-79.5 25.5 t-81.5 -24t-31.5 -73t32.5 -75.5zM336 -157h143l145 -176h-168zM60 114q32 0 54 -22t22 -54t-22 -54t-54 -22t-54 22t-22 54t22 54t54 22z" />
<glyph horiz-adv-x="659" d="M414 328q200 0 200 -153q-1 -51 -31 -91t-84 -62l134 -171h-170l-82 129l-82 -129h-170l128 163q-52 13 -97 38v130q106 -65 217 -65q47 0 72 14t25 37t-17.5 32t-59.5 11h-29q-81 0 -140 30q-32 16 -50.5 47t-18.5 74q0 77 56.5 115.5t134.5 38.5h68v43h-448v112h719 v-112h-131v-152h-1l1 -3h-209q-51 0 -51 -39q0 -24 27 -30.5t89 -6.5zM314 -214h143l145 -176h-168zM35 54q31 0 53.5 -22t22.5 -54t-22.5 -54t-53.5 -22t-53.5 22t-22.5 54t22.5 54t53.5 22z" />
<glyph horiz-adv-x="678" d="M574 559v-192q-47 11 -99.5 11t-93 -11t-69.5 -41t-29 -78.5t37 -87t96 -38.5q38 0 63.5 15t25.5 39q0 46 -57 46q-42 0 -72 -22v99q44 23 109 23t109.5 -37t44.5 -96q0 -116 -113 -160l132 -169h-170l-82 129l-82 -129h-170l134 171q-69 29 -108.5 88t-39.5 132 q0 116 79 174.5t205 60.5h10v73h-464v112h737v-112h-133zM344 -205h143l145 -176h-168zM75 93q31 0 53.5 -22.5t22.5 -53.5t-22.5 -53.5t-53.5 -22.5t-53.5 22.5t-22.5 53.5t22.5 53.5t53.5 22.5z" />
<glyph horiz-adv-x="484" d="M555 14q31 0 53.5 -22t22.5 -54t-22.5 -54t-53.5 -22t-53.5 22t-22.5 54t22.5 54t53.5 22zM612 354l39 -136l-306 -245h-207zM426 559v-175q0 -96 -53 -146.5t-147.5 -50.5t-145 49t-50.5 145v178h-70v112h554v-112h-88zM170 559v-188q0 -66 58.5 -66t58.5 67v187h-117z " />
<glyph horiz-adv-x="419" d="M418 64q32 0 54 -22t22 -54t-22 -54t-54 -22t-54 22t-22 54t22 54t54 22zM232 491q108 0 180 -63t98 -181l-358 -220l-71 108l282 170q-51 64 -137 64t-166 -50v127q30 20 79 32.5t93 12.5zM449 671v-112h-479v112h479z" />
<glyph horiz-adv-x="462" d="M429 -42q0 32 22.5 54t53.5 22t53.5 -22t22.5 -54t-22.5 -54t-53.5 -22t-53.5 22t-22.5 54zM409 507q0 -147 -227 -218q28 -68 127 -68q134 0 233 169l85 -96l-376 -339h-190l167 155q-82 15 -141.5 86t-66.5 170q141 36 199.5 66.5t58.5 81t-43 50.5q-45 0 -45 -52 q0 -28 12 -55h-134q-11 32 -11 67q0 68 46.5 112.5t127.5 44.5t129.5 -46t48.5 -128z" />
<glyph horiz-adv-x="584" d="M79 -212q0 32 22.5 54t53.5 22t53.5 -22t22.5 -54t-22.5 -54t-53.5 -22t-53.5 22t-22.5 54zM-30 671h644v-112h-112v-176h-208q-53 0 -84.5 -28t-31.5 -75.5t27 -74t71 -26.5q94 0 110 100h138v-289h-140v125l-161 -170h-181l129 130q-63 24 -99.5 77.5t-36.5 125.5 q0 97 65.5 157t187.5 60h71v64h-389v112zM562 -296h-168l-120 176h143z" />
<glyph horiz-adv-x="677" d="M574 559v-192q-47 11 -99.5 11t-93 -11t-69.5 -41t-29 -78.5t37 -87t96 -38.5q38 0 63.5 15t25.5 39q0 46 -57 46q-42 0 -72 -22v99q44 23 109 23t109.5 -37t44.5 -96q0 -116 -113 -160l132 -169h-170l-82 129l-82 -129h-170l134 171q-69 29 -108.5 88t-39.5 132 q0 116 79 174.5t205 60.5h10v73h-464v112h737v-112h-133zM344 -205h143l145 -176h-168zM65 94q31 0 53.5 -22t22.5 -54t-22.5 -54t-53.5 -22t-53.5 22t-22.5 54t22.5 54t53.5 22z" />
<glyph horiz-adv-x="343" d="M355 44q31 0 53.5 -22t22.5 -54t-22.5 -54t-53.5 -22t-53.5 22t-22.5 54t22.5 54t53.5 22zM177 352q-18 0 -26 -9t-8 -37t8 -68h-112q-34 57 -34 130q0 45 28 70.5t82 25.5h360v-83l34 -53l-327 -302h-177l364 326h-192zM373 671v-112h-403v112h403z" />
<glyph horiz-adv-x="323" d="M375 54q31 0 53.5 -22t22.5 -54t-22.5 -54t-53.5 -22t-53.5 22t-22.5 54t22.5 54t53.5 22zM65 385v174h-95v112h383v-112h-146v-180q0 -86 74 -86q70 0 115 99l67 -68l-275 -324h-179l168 194q-53 14 -82.5 63.5t-29.5 127.5z" />
<glyph horiz-adv-x="615" d="M512 559v-97q48 41 117 41q124 0 180 -120l-110 -72q-9 34 -34.5 57t-64 23t-63.5 -24.5t-25 -68.5v-298h-142v222l-182 -222h-179l163 194q-107 38 -107 191v174h-95v112h675v-112h-133zM207 559v-180q0 -86 74 -86q39 0 64 24.5t25 68.5v173h-163zM267 -56 q31 0 53.5 -22t22.5 -54t-22.5 -54t-53.5 -22t-53.5 22t-22.5 54t22.5 54t53.5 22z" />
<glyph horiz-adv-x="377" d="M445 -6q31 0 53.5 -22t22.5 -54t-22.5 -54t-53.5 -22t-53.5 22t-22.5 54t22.5 54t53.5 22zM35 292q0 94 63.5 156.5t168.5 62.5q46 0 81 -8v-122q-30 10 -58.5 10t-45.5 -5l166 -137q20 27 38 61l84 -73l-314 -302h-194l162 154q-65 20 -108 75.5t-43 127.5zM193 346 q-15 -24 -15 -64.5t30 -69t76.5 -28.5t77.5 20zM407 671v-112h-437v112h437z" />
<glyph horiz-adv-x="398" d="M245 428h327v-111l-316 -357h-183l345 357h-173v-126h-122l-36 77q-27 57 -27 88q0 52 46 65v93q0 47 -46 47q-26 0 -54 -14v109q38 20 86 20q153 0 153 -145v-103zM455 24q31 0 53.5 -22t22.5 -54t-22.5 -54t-53.5 -22t-53.5 22t-22.5 54t22.5 54t53.5 22z" />
<glyph horiz-adv-x="427" d="M244 428h334v-123l-297 -345h-185l318 345h-170v-119h-119l-36 80q-29 66 -29 91q0 52 45 64v138h-135v112h487v-112h-213v-131zM495 34q31 0 53.5 -22t22.5 -54t-22.5 -54t-53.5 -22t-53.5 22t-22.5 54t22.5 54t53.5 22z" />
<glyph horiz-adv-x="388" d="M369 -52q0 32 22.5 54t53.5 22t53.5 -22t22.5 -54t-22.5 -54t-53.5 -22t-53.5 22t-22.5 54zM418 559h-109q21 -32 21 -86q0 -118 -131 -162q30 -71 116.5 -71t163.5 123l69 -80l-338 -328h-197l185 179q-65 27 -108.5 90t-54.5 157q156 22 156 99q0 50 -29 79h-192v112 h448v-112z" />
<glyph horiz-adv-x="375" d="M379 -52q0 32 22.5 54t53.5 22t53.5 -22t22.5 -54t-22.5 -54t-53.5 -22t-53.5 22t-22.5 54zM405 559h-435v112h435v-112zM337 375q-34 9 -66 9t-58 -24t-26 -67.5t26.5 -69t76.5 -25.5q95 0 166 133l73 -83l-300 -313h-187l155 162q-65 15 -109 65.5t-44 136t61.5 146 t161.5 60.5q40 0 70 -8v-122z" />
<glyph horiz-adv-x="1354" d="M1384 559h-364v-109q44 39 106 39q89 0 143.5 -55.5t54.5 -145t-62 -145t-159 -55.5q-15 0 -23 1v113q6 -1 16 -1q41 0 63.5 25t22.5 62.5t-21 63t-58.5 25.5t-60 -25.5t-22.5 -67.5v-284h-142v116q-43 -38 -106 -38q-89 0 -143.5 55.5t-54.5 141.5q0 51 20 93 q-16 9 -45 9t-51.5 -25.5t-22.5 -67.5v-284h-142v116q-43 -38 -106 -38q-89 0 -143.5 55.5t-54.5 145t62 145t159 55.5q14 0 23 -1v-113q-6 1 -16 1q-41 0 -63.5 -25t-22.5 -62.5t21 -63t58.5 -25.5t60 25.5t22.5 67.5v276h-363v112h1414v-112zM878 283v276h-403v-109 q44 39 107 39t110 -30q48 20 103 20q14 0 23 -1v-113q-6 1 -16 1q-41 0 -63.5 -25t-22.5 -62.5t21 -63t58.5 -25.5t60 25.5t22.5 67.5z" />
<glyph horiz-adv-x="1438" d="M1468 671v-112h-100v-559h-142v132q-40 -26 -95 -26q-79 0 -131.5 52.5t-52.5 134.5t56 134.5t139 52.5q14 0 28 -2v-103h-10q-37 0 -59 -24t-22 -60.5t21.5 -58.5t53.5 -22q72 0 72 73v276h-286v-124q0 -68 -34 -113q-38 -49 -109 -62l203 -260h-170l-198 256v60 q-2 27 -22 44t-53.5 17t-57.5 -25.5t-24 -67.5v-284h-142v116q-43 -38 -106 -38q-89 0 -143.5 55.5t-54.5 145t62 145t159 55.5q14 0 23 -1v-113q-6 1 -16 1q-41 0 -63.5 -25t-22.5 -62.5t21 -63t58.5 -25.5t60 25.5t22.5 67.5v276h-363v112h1498zM800 443v116h-325v-110 q47 40 106.5 40t103.5 -31t62 -87q53 14 53 72z" />
<glyph horiz-adv-x="1260" d="M1291 671v-112h-100v-559h-140v146q-55 -77 -181 -77q-87 0 -138.5 47t-51.5 117t53 104h-106q-24 40 -74 40q-35 0 -56.5 -25.5t-21.5 -67.5v-284h-142v116q-43 -38 -106 -38q-89 0 -143.5 55.5t-54.5 145t62 145t159 55.5q14 0 23 -1v-113q-6 1 -16 1q-41 0 -63.5 -25 t-22.5 -62.5t21 -63t58.5 -25.5t60 25.5t22.5 67.5v276h-363v112h1321zM1051 301v258h-576v-110q47 40 114 40t112 -37h279v-115q-165 0 -165 -86q0 -33 25 -51t68 -18q65 0 104 41t39 78z" />
<glyph horiz-adv-x="1178" d="M1209 671v-112h-101v-559h-142v348h-141q58 -38 58 -119t-56 -127.5t-138 -46.5t-139 21v124q47 -25 101 -25q99 0 99 82q0 72 -93 87l-24 -24q-5 18 -14 28h-12v12q-20 17 -53.5 17t-56 -25.5t-22.5 -67.5v-284h-142v116q-43 -38 -106 -38q-89 0 -143.5 55.5t-54.5 145 t62 145t159 55.5q14 0 23 -1v-113q-6 1 -16 1q-41 0 -63.5 -25t-22.5 -62.5t21 -63t58.5 -25.5t60 25.5t22.5 67.5v276h-363v112h1239zM966 463v96h-491v-109q44 39 105.5 39t105.5 -26h280z" />
<glyph horiz-adv-x="1090" d="M1023 559v-202q-32 7 -105.5 7t-117 -32t-43.5 -87.5t42.5 -85t112.5 -29.5q39 0 81 12.5t66 28.5v-127q-68 -35 -158 -35q-135 0 -211 64t-76 177q0 44 15 81q-19 46 -74 46q-35 0 -57.5 -25.5t-22.5 -67.5v-284h-142v116q-43 -38 -106 -38q-89 0 -143.5 55.5t-54.5 145 t62 145t159 55.5q14 0 23 -1v-113q-6 1 -16 1q-41 0 -63.5 -25t-22.5 -62.5t21 -63t58.5 -25.5t60 25.5t22.5 67.5v276h-363v112h1150v-112h-97zM475 559v-109q44 39 106 39q85 0 140 -52q63 36 152 39h10v83h-408z" />
<glyph horiz-adv-x="1354" d="M1384 671v-112h-100v-559h-141v559h-117v-205q0 -96 -53 -146.5t-145 -50.5q-185 0 -197 170q-20 50 -76 50q-35 0 -57.5 -25.5t-22.5 -67.5v-284h-142v116q-43 -38 -106 -38q-89 0 -143.5 55.5t-54.5 145t62 145t159 55.5q14 0 23 -1v-113q-6 1 -16 1q-41 0 -63.5 -25 t-22.5 -62.5t21 -63t58.5 -25.5t60 25.5t22.5 67.5v276h-363v112h1414zM475 559v-109q44 39 106 39q24 0 49 -5v75h-155zM887 342v217h-117v-218q0 -66 58.5 -66t58.5 67z" />
<glyph horiz-adv-x="944" d="M974 559h-394v-126q44 39 117 39q99 0 158 -58t59 -158.5t-61 -160t-162 -59.5q-26 0 -41 3v113q15 -3 34 -3q41 0 64.5 29t23.5 80.5t-27 76.5t-70.5 25t-69 -29t-25.5 -75v-256h-142v360h-56q-153 0 -153 -126q0 -51 28.5 -81t76.5 -30q11 0 17 1v-121q-24 -2 -40 -2 q-97 0 -160.5 60.5t-63.5 165.5q0 82 47 134h-89v111h393v87h-468v112h1004v-112z" />
<glyph horiz-adv-x="1284" d="M1072 671h232v-112h-90v-559h-142v150q-21 -27 -67.5 -43.5t-100.5 -16.5q-97 0 -172.5 63.5t-95.5 168.5q-21 55 -81 55q-35 0 -57.5 -25.5t-22.5 -67.5v-284h-142v116q-43 -38 -106 -38q-89 0 -143.5 55.5t-54.5 145t62 145t159 55.5q14 0 23 -1v-113q-6 1 -16 1 q-41 0 -63.5 -25t-22.5 -62.5t21 -63t58.5 -25.5t60 25.5t22.5 67.5v276h-363v112h606v-112h-101v-109q44 39 106 39q102 0 156 -93q79 24 115 50.5t36 65.5q0 52 -43 52q-45 0 -45 -52q0 -18 2 -26h-131q-4 20 -4 38q0 68 46.5 112.5t127.5 44.5t129.5 -46t48.5 -128 q0 -147 -227 -218q15 -36 49.5 -57t86 -21t98 32.5t46.5 107.5v320z" />
<glyph horiz-adv-x="1126" d="M1025 559v-152h-1l1 -3h-209q-51 0 -51 -39q0 -24 27 -30.5t89 -6.5q200 0 200 -153q-2 -76 -65.5 -125.5t-179 -49.5t-209.5 52v130q106 -65 217 -65q47 0 72 14t25 38.5t-23 33t-92 8.5t-127 28t-70 93q-21 45 -74 45q-35 0 -57.5 -25.5t-22.5 -67.5v-284h-142v116 q-43 -38 -106 -38q-89 0 -143.5 55.5t-54.5 145t62 145t159 55.5q14 0 23 -1v-113q-6 1 -16 1q-41 0 -63.5 -25t-22.5 -62.5t21 -63t58.5 -25.5t60 25.5t22.5 67.5v276h-363v112h1186v-112h-131zM475 559v-109q44 39 100.5 39t97.5 -19q55 46 144 46h68v43h-410z" />
<glyph horiz-adv-x="1145" d="M1175 671v-112h-100v-559h-142v212q-48 -41 -117 -41q-162 0 -185 154q-17 52 -76 52q-35 0 -57.5 -25.5t-22.5 -67.5v-284h-142v116q-43 -38 -106 -38q-89 0 -143.5 55.5t-54.5 145t62 145t159 55.5q14 0 23 -1v-113q-6 1 -16 1q-41 0 -63.5 -25t-22.5 -62.5t21 -63 t58.5 -25.5t60 25.5t22.5 67.5v276h-363v112h1205zM475 559v-109q44 39 106 39q22 0 47 -5v75h-153zM933 376v183h-163v-190q0 -86 74 -86q39 0 64 24.5t25 68.5z" />
<glyph horiz-adv-x="1413" d="M1443 559h-367v-100q48 41 117 41q87 0 136 -56.5t49 -138.5q0 -100 -62 -152.5t-156 -52.5q-17 0 -25 1v113q6 -1 16 -1q86 0 86 91q0 35 -19.5 59.5t-55.5 24.5t-61 -24.5t-25 -68.5v-295h-142v212q-48 -41 -117 -41q-160 0 -184 149q-16 57 -78 57q-35 0 -57.5 -25.5 t-22.5 -67.5v-284h-142v116q-43 -38 -106 -38q-89 0 -143.5 55.5t-54.5 145t62 145t159 55.5q14 0 23 -1v-113q-6 1 -16 1q-41 0 -63.5 -25t-22.5 -62.5t21 -63t58.5 -25.5t60 25.5t22.5 67.5v276h-363v112h1473v-112zM475 559v-109q44 39 106 39q23 0 48 -5v75h-154z M934 376v183h-163v-190q0 -86 74 -86q39 0 64 24.5t25 68.5z" />
<glyph horiz-adv-x="1180" d="M1210 671v-112h-100v-559h-138v261h-158v-122h-119l-36 80q-29 66 -29 84t1 22q-17 52 -76 52q-35 0 -57.5 -25.5t-22.5 -67.5v-284h-142v116q-43 -38 -106 -38q-89 0 -143.5 55.5t-54.5 145t62 145t159 55.5q14 0 23 -1v-113q-6 1 -16 1q-41 0 -63.5 -25t-22.5 -62.5 t21 -63t58.5 -25.5t60 25.5t22.5 67.5v276h-363v112h1240zM475 559v-109q44 39 101 39t99 -20v90h-200zM972 373v186h-158v-186h158z" />
<glyph horiz-adv-x="1241" d="M1271 671v-112h-100v-559h-141v170q-17 -29 -57 -46.5t-90 -17.5q-87 0 -154 56.5t-93 157.5q-20 57 -81 57q-35 0 -57.5 -25.5t-22.5 -67.5v-284h-142v116q-43 -38 -106 -38q-89 0 -143.5 55.5t-54.5 145t62 145t159 55.5q14 0 23 -1v-113q-6 1 -16 1q-41 0 -63.5 -25 t-22.5 -62.5t21 -63t58.5 -25.5t60 25.5t22.5 67.5v276h-363v112h1301zM475 559v-109q44 39 106 39q96 0 149 -83q52 29 52 76.5t-29 76.5h-278zM1030 362v197h-130q21 -32 21 -91.5t-36.5 -101t-94.5 -60.5q23 -76 117 -76q57 0 90 33t33 99z" />
<glyph horiz-adv-x="1351" d="M1381 671v-112h-100v-559h-143v376q-6 1 -17 1q-48 0 -69 -24t-21 -77v-65h-143v67q0 85 -58 85q-66 0 -66 -99q0 -147 156 -147q20 0 43 3v-115q-27 -4 -59 -4q-128 0 -204 72t-76 193q0 33 6 63q-20 48 -75 48q-35 0 -57.5 -25.5t-22.5 -67.5v-284h-142v116 q-43 -38 -106 -38q-89 0 -143.5 55.5t-54.5 145t62 145t159 55.5q14 0 23 -1v-113q-6 1 -16 1q-41 0 -63.5 -25t-22.5 -62.5t21 -63t58.5 -25.5t60 25.5t22.5 67.5v276h-363v112h1411zM1138 559h-663v-109q44 39 112.5 39t118.5 -39q46 30 107.5 30t99 -25.5t46.5 -63.5 q28 97 154 97q9 0 25 -2v73z" />
<glyph horiz-adv-x="1148" d="M1178 671v-112h-100v-559h-142v135q-55 -49 -143 -49t-150.5 55t-62.5 151q0 42 14 79q-15 6 -33 6q-35 0 -57.5 -25.5t-22.5 -67.5v-284h-142v116q-43 -38 -106 -38q-89 0 -143.5 55.5t-54.5 145t62 145t159 55.5q14 0 23 -1v-113q-6 1 -16 1q-41 0 -63.5 -25 t-22.5 -62.5t21 -63t58.5 -25.5t60 25.5t22.5 67.5v276h-363v112h1202zM936 291v268h-455v-109q44 39 100 39t95 -18q54 34 127 34q40 0 70 -8v-122q-34 9 -66 9t-58 -24t-26 -67.5t26.5 -69t71.5 -25.5t80 26.5t35 66.5z" />
<glyph horiz-adv-x="1320" d="M1108 671h242v-112h-100v-559h-142v671zM475 559v-109q44 39 97 39t90 -14q-5 20 -5 38q0 68 50.5 116t137.5 48t142 -55.5t55 -142.5q0 -112 -73 -173t-175 -67l237 -239h-180l-221 234v95q-20 48 -75 48q-35 0 -57.5 -25.5t-22.5 -67.5v-284h-142v116q-43 -38 -106 -38 q-89 0 -143.5 55.5t-54.5 145t62 145t159 55.5q14 0 23 -1v-113q-6 1 -16 1q-41 0 -63.5 -25t-22.5 -62.5t21 -63t58.5 -25.5t60 25.5t22.5 67.5v276h-363v112h606v-112h-101zM742 351q77 0 119 34t42 95q0 80 -61 80q-24 0 -36.5 -17t-12.5 -44.5t17 -59.5h-91 q10 -10 15 -16l-71 -72h79z" />
<glyph horiz-adv-x="1294" d="M1324 671v-112h-100v-559h-141v243h-150q-57 0 -125 8l187 -251h-170l-193 269v51q-2 26 -23 41.5t-54 15.5t-56.5 -25t-23.5 -68v-284h-142v116q-43 -38 -106 -38q-89 0 -143.5 55.5t-54.5 145t62 145t159 55.5q14 0 23 -1v-113q-6 1 -16 1q-41 0 -63.5 -25t-22.5 -62.5 t21 -63t58.5 -25.5t60 25.5t22.5 67.5v276h-363v112h1354zM475 559v-109q44 39 106 39q120 0 172 -113q42 17 42 68v115h-320zM1083 354v205h-148v-114q0 -53 -21 -91h169z" />
<glyph horiz-adv-x="1416" d="M1446 671v-112h-100v-559h-142v91q-89 -72 -213 -72q-174 0 -283 138q-44 -65 -123 -101.5t-172 -36.5q-130 0 -224 70.5t-144 196.5v110h69q34 0 49 16.5t15 54.5v92h-208v112h1476zM768 467v92h-450v-122q0 -111 -84 -140q-16 -6 -26 -7q22 -69 83.5 -108t141.5 -39 t135.5 40.5t55.5 117.5q0 46 -22.5 73.5t-64.5 27.5q-24 0 -39 -14.5t-15 -35t12.5 -32t26 -11.5t22.5 3v-94q-26 -8 -51 -8q-60 0 -100 39t-40 103.5t50 109t132 44.5q140 0 195 -107q38 10 38 68zM1204 559h-296v-120q0 -120 -97 -146q-5 -1 -13 -3q22 -69 82 -108 t136.5 -39t137 41.5t60.5 116.5q0 46 -21.5 73.5t-54 27.5t-49 -14.5t-16.5 -35t12.5 -32t26 -11.5t22.5 3v-94q-26 -8 -51 -8q-60 0 -100 39t-40 103.5t50 109t132 44.5q42 0 79 -16v69z" />
<glyph horiz-adv-x="1198" d="M1228 671v-112h-100v-559h-142v360h-70q-68 0 -103.5 -30.5t-35.5 -88.5q0 -122 105 -122q11 0 17 1v-117q-24 -2 -40 -2q-136 0 -193 107q-100 -89 -253 -89q-130 0 -224 70.5t-144 196.5v110h69q34 0 49 16.5t15 54.5v92h-208v112h1258zM986 474v85h-668v-122 q0 -111 -84 -140q-16 -6 -26 -7q22 -69 83.5 -108t141.5 -39t135.5 40.5t55.5 117.5q0 46 -22.5 73.5t-64.5 27.5q-24 0 -39 -14.5t-15 -35t12.5 -32t26 -11.5t22.5 3v-94q-26 -8 -51 -8q-60 0 -100 39t-40 103.5t50 109t132 44.5q122 0 182 -85q72 53 195 53h74z" />
<glyph horiz-adv-x="1235" d="M1265 671v-112h-100v-559h-138v261h-158v-122h-119l-23 51q-38 -80 -123.5 -125.5t-190.5 -45.5q-130 0 -224 70.5t-144 196.5v110h69q34 0 49 16.5t15 54.5v92h-208v112h1295zM493 210q-60 0 -100 39t-40 103.5t50 109t126.5 44.5t126 -29.5t74.5 -78.5v161h-412v-122 q0 -111 -84 -140q-16 -6 -26 -7q22 -69 83.5 -108t141.5 -39t135.5 40.5t55.5 117.5q0 46 -22.5 73.5t-64.5 27.5q-24 0 -39 -14.5t-15 -35t12.5 -32t26 -11.5t22.5 3v-94q-26 -8 -51 -8zM1027 373v186h-158v-186h158z" />
<glyph horiz-adv-x="1234" d="M1264 671v-112h-100v-559h-141v170q-17 -29 -57 -46.5t-90 -17.5q-93 0 -160 62q-43 -70 -124.5 -109.5t-178.5 -39.5q-130 0 -224 70.5t-144 196.5v110h69q34 0 49 16.5t15 54.5v92h-208v112h1294zM493 210q-60 0 -100 39t-40 103.5t50 109t132 44.5q134 0 190 -99 q50 29 50 76t-29 76h-428v-122q0 -111 -84 -140q-16 -6 -26 -7q22 -69 83.5 -108t141.5 -39t135.5 40.5t55.5 117.5q0 46 -22.5 73.5t-64.5 27.5q-24 0 -39 -14.5t-15 -35t12.5 -32t26 -11.5t22.5 3v-94q-26 -8 -51 -8zM1023 362v197h-130q21 -32 21 -91.5t-36.5 -101 t-94.5 -60.5q23 -76 117 -76q57 0 90 33t33 99z" />
<glyph horiz-adv-x="1193" d="M1223 671v-112h-100v-559h-142v135q-55 -49 -142 -49t-146 50q-46 -56 -120 -86.5t-160 -30.5q-130 0 -224 70.5t-144 196.5v110h69q34 0 49 16.5t15 54.5v92h-208v112h1253zM981 291v268h-663v-122q0 -111 -84 -140q-16 -6 -26 -7q22 -69 83.5 -108t141.5 -39 t135.5 40.5t55.5 117.5q0 46 -22.5 73.5t-64.5 27.5q-24 0 -39 -14.5t-15 -35t12.5 -32t26 -11.5t22.5 3v-94q-26 -8 -51 -8q-60 0 -100 39t-40 103.5t50 109t140 44.5t149 -56q61 55 156 55q40 0 70 -8v-122q-34 9 -66 9t-58 -24t-26 -67.5t26.5 -69t71.5 -25.5t80 26.5 t35 66.5z" />
<glyph horiz-adv-x="1400" d="M1188 671h242v-112h-100v-559h-142v671zM737 513q0 68 50.5 116t137.5 48t142 -55.5t55 -142.5q0 -112 -73 -173t-175 -67l237 -239h-180l-196 208q-34 -88 -122.5 -138.5t-209 -50.5t-214.5 70.5t-144 196.5v110h69q34 0 49 16.5t15 54.5v92h-208v112h688v-112h-340 v-122q0 -111 -84 -140q-16 -6 -26 -7q22 -69 83.5 -108t141.5 -39t135.5 40.5t55.5 117.5q0 46 -22.5 73.5t-64.5 27.5q-24 0 -39 -14.5t-15 -35t12.5 -32t26 -11.5t22.5 3v-94q-26 -8 -51 -8q-60 0 -100 39t-40 103.5t50 109t135 44.5t139.5 -43.5t69.5 -111.5h75 q77 0 119 34t42 95q0 80 -61 80q-24 0 -36.5 -17t-12.5 -44.5t17 -59.5h-135q-18 34 -18 74z" />
<glyph horiz-adv-x="905" d="M935 671v-112h-100v-559h-140v559h-111v-214q0 -72 -40.5 -107t-96.5 -35t-97 14v110q22 -12 49 -12q44 0 44 46v198h-179v-214q0 -72 -40.5 -107t-96.5 -35t-97 14v110q22 -12 49 -12q44 0 44 46v198h-153v112h965z" />
<glyph horiz-adv-x="968" d="M998 671v-112h-100v-559h-140v140q-25 -35 -74 -53t-102 -18q-93 0 -155.5 45t-62.5 123q0 60 42.5 98t114.5 43q-68 2 -105.5 29.5t-37.5 73.5t30 78h-144v-214q0 -72 -40.5 -107t-96.5 -35t-97 14v110q22 -12 49 -12q44 0 44 46v198h-153v112h1028zM758 341v218h-207 q-31 -26 -31 -61q0 -61 89 -61h40v-118h-48q-44 0 -69.5 -18.5t-25.5 -50t25.5 -48t66.5 -16.5q72 0 116 39.5t44 115.5z" />
<glyph horiz-adv-x="978" d="M1009 671v-112h-101v-559h-142v348h-141q58 -38 58 -119t-56 -127.5t-138 -46.5t-139 21v124q47 -25 101 -25q99 0 99 82q0 43 -36 67t-107 24v115h359v96h-502v-214q0 -72 -40.5 -107t-96.5 -35t-97 14v110q22 -12 49 -12q44 0 44 46v198h-153v112h1039z" />
<glyph horiz-adv-x="1108" d="M1138 671v-112h-100v-559h-141v559h-117v-205q0 -96 -53 -146.5t-147.5 -50.5t-145 49t-50.5 145v208h-120v-214q0 -72 -40.5 -107t-96.5 -35t-97 14v110q22 -12 49 -12q44 0 44 46v198h-153v112h1168zM641 342v217h-117v-218q0 -66 58.5 -66t58.5 67z" />
<glyph horiz-adv-x="909" d="M827 383h-208q-53 0 -84.5 -28t-31.5 -75.5t27 -74t71 -26.5q94 0 110 100h138v-289h-140v125q-18 -26 -57.5 -39.5t-75.5 -13.5q-98 0 -157 61.5t-59 156.5t65.5 155t187.5 60h71v64h-420v-214q0 -72 -40.5 -107t-96.5 -35t-97 14v110q22 -12 49 -12q44 0 44 46v198 h-153v112h969v-112h-112v-176z" />
<glyph horiz-adv-x="963" d="M993 671v-112h-100v-559h-140v136q-57 -67 -176 -67q-93 0 -155.5 45t-62.5 123q0 59 41.5 92.5t115.5 38.5q-68 2 -105.5 29.5t-37.5 82t44 79.5h-153v-214q0 -72 -40.5 -107t-96.5 -35t-97 14v110q22 -12 49 -12q44 0 44 46v198h-153v112h645v-112h-3q-97 0 -97 -71 q0 -61 89 -61h40v-118h-48q-95 0 -95 -58q0 -32 25.5 -48.5t66.5 -16.5q73 0 116.5 36t43.5 110v339h240z" />
<glyph horiz-adv-x="972" d="M1002 671v-112h-100v-559h-142v132q-63 -58 -155.5 -58t-161 62t-68.5 156t63.5 156.5t168.5 62.5q46 0 81 -8v-122q-30 10 -58.5 10t-45.5 -5l166 -137q10 22 10 42v268h-496v-214q0 -72 -40.5 -107t-96.5 -35t-97 14v110q22 -12 49 -12q44 0 44 46v198h-153v112h1032z M533 346q-15 -24 -15 -64.5t30 -69t74 -28.5t81 20z" />
<glyph horiz-adv-x="921" d="M713 671h238v-112h-100v-559h-138v266h-153v-125h-122l-36 77q-27 57 -27 88q0 52 46 65v143q0 47 -46 47q-26 0 -54 -14v12h-57v-214q0 -72 -40.5 -107t-96.5 -35t-97 14v110q22 -12 49 -12q44 0 44 46v198h-153v112h384v-3q27 8 53 8q153 0 153 -145v-153h153v293z" />
<glyph horiz-adv-x="905" d="M935 671v-112h-100v-559h-138v261h-158v-122h-119l-36 80q-29 66 -29 92q0 43 45 55v193h-136v-214q0 -72 -40.5 -107t-96.5 -35t-97 14v110q22 -12 49 -12q44 0 44 46v198h-153v112h965zM697 373v186h-158v-186h158z" />
<glyph horiz-adv-x="984" d="M1014 671v-112h-100v-559h-141v170q-17 -29 -57 -46.5t-90 -17.5q-99 0 -170.5 72t-86.5 198q156 22 156 104q0 50 -29 79h-232v-214q0 -72 -40.5 -107t-96.5 -35t-97 14v110q22 -12 49 -12q44 0 44 46v198h-153v112h1044zM773 362v197h-130q21 -32 21 -91.5t-36.5 -101 t-94.5 -60.5q23 -76 117 -76q57 0 90 33t33 99z" />
<glyph horiz-adv-x="1091" d="M1121 671v-112h-100v-559h-143v376q-6 1 -17 1q-48 0 -69 -24t-21 -77v-65h-143v67q0 85 -58 85q-66 0 -66 -99q0 -147 156 -147q20 0 43 3v-115q-27 -4 -59 -4q-128 0 -204 72t-76 193q0 98 50.5 156t140.5 58q60 0 97.5 -25.5t46.5 -63.5q28 97 154 97q9 0 25 -2v73 h-614v-214q0 -72 -40.5 -107t-96.5 -35t-97 14v110q22 -12 49 -12q44 0 44 46v198h-153v112h1151z" />
<glyph horiz-adv-x="933" d="M963 671v-112h-100v-559h-142v135q-55 -49 -143 -49t-150.5 55t-62.5 149t61.5 154.5t161.5 60.5q40 0 70 -8v-122q-34 9 -66 9t-58 -24t-26 -67.5t26.5 -69t71.5 -25.5t80 26.5t35 66.5v268h-457v-214q0 -72 -40.5 -107t-96.5 -35t-97 14v110q22 -12 49 -12q44 0 44 46 v198h-153v112h993z" />
<glyph horiz-adv-x="1032" d="M1062 671v-112h-100v-559h-141v243h-150q-57 0 -125 8l187 -251h-170l-193 269v98h71q92 0 92 77v115h-269v-214q0 -72 -40.5 -107t-96.5 -35t-97 14v110q22 -12 49 -12q44 0 44 46v198h-153v112h1092zM821 354v205h-148v-114q0 -53 -21 -91h169z" />
<glyph horiz-adv-x="935" d="M965 671v-112h-100v-559h-138v261h-158v-122h-119l-5 11q-71 -81 -193 -81q-93 0 -155.5 45t-62.5 123q0 60 42.5 98t114.5 43q-68 2 -105.5 29.5t-37.5 73.5t30 78h-108v112h995zM319 319h-48q-44 0 -69.5 -18.5t-25.5 -50t25.5 -48t66.5 -16.5q89 0 134 61 q-17 42 -17 64q0 43 45 55v193h-209q-31 -26 -31 -61q0 -61 89 -61h40v-118zM727 373v186h-158v-186h158z" />
<glyph horiz-adv-x="1004" d="M1034 671v-112h-100v-559h-141v170q-17 -29 -57 -46.5t-90 -17.5q-101 0 -171 73q-83 -110 -223 -110q-93 0 -155.5 45t-62.5 123q0 60 42.5 98t114.5 43q-68 2 -105.5 29.5t-37.5 73.5t30 78h-108v112h1064zM319 319h-48q-44 0 -69.5 -18.5t-25.5 -50t25.5 -48 t66.5 -16.5q100 0 149 81q-21 51 -28 109q156 22 156 104q0 50 -29 79h-295q-31 -26 -31 -61q0 -61 89 -61h40v-118zM793 362v197h-130q21 -32 21 -91.5t-36.5 -101t-94.5 -60.5q23 -76 117 -76q57 0 90 33t33 99z" />
<glyph horiz-adv-x="1040" d="M1070 671v-112h-100v-559h-140v168q-55 -77 -181 -77q-108 0 -160 71q-83 -71 -190.5 -71t-163.5 42.5t-56 116t55 109.5h-114v115h359v-115q-165 0 -165 -86q0 -32 25 -50.5t68 -18.5q91 0 154 73q7 49 43 77l1 2l1 -1l6 4h-82v115h329v-115q-165 0 -165 -86 q0 -33 25 -51t68 -18q65 0 104 41t39 78v236h-860v112h1100z" />
<glyph horiz-adv-x="1057" d="M1087 559h-139v-85q74 -50 74 -152q0 -124 -91 -198.5t-232 -74.5q-76 0 -139 25t-93 71q-79 -54 -177.5 -54t-154.5 42.5t-56 116t55 109.5h-114v115h359v-115q-165 0 -165 -86q0 -32 25 -50.5t68 -18.5q87 0 146 64q27 74 135 80q-64 1 -98.5 37.5t-34.5 87.5t33 86 h-518v112h1117v-112zM814 559h-176q-42 -33 -42 -82q0 -30 19 -50t53 -20h37v-118h-37q-81 0 -81 -60q0 -29 31.5 -46.5t81.5 -17.5q81 0 130 39.5t49 105.5q0 41 -22 62.5t-54.5 21.5t-50.5 -5v111q23 6 62 8v51z" />
<glyph horiz-adv-x="1015" d="M1045 671v-112h-100v-559h-138v261h-158v-122h-119l-20 44q-85 -92 -220 -92q-99 0 -155 42.5t-56 116t55 109.5h-114v115h359v-115q-165 0 -165 -86q0 -32 25 -50.5t68 -18.5q100 0 161 83q-3 13 -3 24q0 43 45 55v193h-540v112h1075zM807 373v186h-158v-186h158z" />
<glyph horiz-adv-x="1064" d="M1094 671v-112h-100v-559h-141v170q-17 -29 -57 -46.5t-90 -17.5q-113 0 -185 89q-39 -47 -99 -75.5t-132 -28.5q-99 0 -155 42.5t-56 116t55 109.5h-114v115h359v-115q-165 0 -165 -86q0 -32 25 -50.5t68 -18.5q101 0 162 84q-14 43 -20 88q156 22 156 104q0 50 -29 79 h-606v112h1124zM853 362v197h-130q21 -32 21 -91.5t-36.5 -101t-94.5 -60.5q23 -76 117 -76q57 0 90 33t33 99z" />
<glyph horiz-adv-x="1284" d="M1333 671v-112h-119v-559h-141v100q-17 -29 -57 -46.5t-90 -17.5q-100 0 -166 62.5t-81 187.5q112 27 138 57q13 15 13 31.5t-15 26.5t-42 10q-62 0 -160 -27q9 -28 9 -62q0 -124 -91 -198.5t-232 -74.5q-106 0 -180 45.5t-74 127.5q0 56 37.5 89t105.5 37 q-64 1 -98.5 37.5t-34.5 87.5t33 86h-118v112h1363zM305 289h-37q-81 0 -81 -60q0 -29 31.5 -46.5t81.5 -17.5q81 0 130 39.5t49 105.5q0 41 -22 62.5t-54.5 21.5t-50.5 -5v111q23 6 62 8v51h-176q-42 -33 -42 -82q0 -30 19 -50t53 -20h37v-118zM1073 292v267h-525v-80 q116 38 225 38q195 0 195 -140q0 -51 -35.5 -90.5t-90.5 -58.5q24 -68 108 -68q57 0 90 33t33 99z" />
<glyph horiz-adv-x="677" d="M707 559h-139v-85q74 -50 74 -156.5t-74 -178.5v-459h-137v131q-49 -55 -140 -55t-153.5 55t-62.5 151q0 77 57 129q-87 49 -87 131q0 56 37.5 89t105.5 37q-64 1 -98.5 37.5t-34.5 87.5t33 86h-118v112h737v-112zM431 -39v102q-54 -14 -112 -14h-10q-40 0 -65.5 -23 t-25.5 -66.5t27 -67.5t71.5 -24t79.5 26.5t35 66.5zM434 559h-196q-42 -33 -42 -82q0 -30 19 -50t53 -20h37v-118h-37q-39 0 -60.5 -14.5t-21.5 -37.5q0 -34 35 -53t107.5 -19t121.5 39.5t49 105.5q0 41 -22 62.5t-54.5 21.5t-50.5 -5v111q23 6 62 8v51z" />
<glyph horiz-adv-x="1229" d="M1259 559h-364v-109q44 39 106 39q89 0 143.5 -55.5t54.5 -145t-62 -145t-159 -55.5q-15 0 -23 1v113q6 -1 16 -1q41 0 63.5 25t22.5 62.5t-21 63t-58.5 25.5t-60 -25.5t-22.5 -67.5v-284h-142v116q-43 -38 -106 -38q-89 0 -143.5 55.5t-54.5 141.5q0 40 12 73h-156 q58 -38 58 -119t-56 -127.5t-138 -46.5t-139 21v124q47 -25 101 -25q99 0 99 82q0 43 -36 67t-107 24v115h488v-1q43 17 95 17q14 0 23 -1v-113q-6 1 -16 1q-41 0 -63.5 -25t-22.5 -62.5t21 -63t58.5 -25.5t60 25.5t22.5 67.5v276h-783v112h1289v-112z" />
<glyph horiz-adv-x="1058" d="M1089 671v-112h-101v-559h-142v348h-141q58 -38 58 -119t-56 -127.5t-138 -46.5t-139 21v124q47 -25 101 -25q99 0 99 82q0 43 -36 67t-107 24h-182q58 -38 58 -119t-56 -127.5t-138 -46.5t-139 21v124q47 -25 101 -25q99 0 99 82q0 43 -36 67t-107 24v115h759v96h-876 v112h1119z" />
<glyph horiz-adv-x="1231" d="M1261 671v-112h-100v-559h-142v229h-86q8 -23 8 -58q0 -76 -51.5 -122.5t-126.5 -46.5t-129 31v-84h-140v238h130q17 -37 47 -58.5t62.5 -21.5t50.5 14.5t18 44t-23 40.5t-64 11q-198 0 -207 131h-203q58 -38 58 -119t-56 -127.5t-138 -46.5t-139 21v124q47 -25 101 -25 q99 0 99 82q0 43 -36 67t-107 24v115h461q52 51 160 51h56v45h-794v112h1291zM715 336h304v223h-115v-154h-1l1 -3h-190q-63 0 -63 -34q0 -32 64 -32z" />
</font>
</defs>
</svg>
